Гениальные младенцы / Baby Geniuses (Боб Кларк / Bob Clark) [1999, США, фантастика, комедия, криминал, семейный, WEB-DL 1080p] 2x MVO + AVO + Sub Eng, Rus + Original Eng

Reply to topic
 
Author
Message

Faust ®

Gender: Unknown

Longevity: 8 years 2 months

Posts: 13748

Reputation: 0 [+] [-]

Faust · Post 12-Feb-2017 13:00

[Quote] 

Гениальные младенцы / Baby Geniuses
-Страна: США
Жанр: фантастика, комедия, криминал, семейный
Год выпуска: 1999
Продолжительность: 01:30:49-Перевод 1: Профессиональный (многоголосый, закадровый) R5
Перевод 2: Профессиональный (многоголосый, закадровый) ТК Россия ( thx JUSTKANT )
Перевод 3: Авторский (одноголосый, закадровый) Юрий Живов (thx edich2)
Cубтитры: английские, русские
Оригинальная аудиодорожка: английский-Режиссер: Боб Кларк / Bob Clark-В ролях: Кэтлин Тёрнер, Кристофер Ллойд, Ким Кэтролл, Питер МакНикол, Дом ДеЛуис, Руби Ди, Кайл Ховард, Кэй Баллард, Лео Фицджералд, Майлс Фицджералд-Описание:
В секретной корпорации «Бэйбико» сделано открытие века: оказывается, на самом деле маленькие дети — венец человеческой эволюции! Они разговаривают на собственном языке и смотрят на взрослых сверху вниз. Живое подтверждение тому — малыш Слай, которого прячут в тайной лаборатории вместе с несколькими детьми. В свои два года он умен, как Эйнштейн, и силен, как Сталлоне, и ему очень не нравится жить взаперти.
Перехитрив охрану, Слай вырывается на свободу. Малыш преспокойно разгуливает по городу с сигарой во рту, забираясь в коляски проезжающих мимо красоток, и не подозревает, что очень скоро произойдет встреча, которая изменит всю его жизнь.-Сэмпл: Скачать-Тип релиза: WEB-DL 1080p
Контейнер: MKV-Видео: 1 920x1 080 (16:9); 10000 Kbps; 25.000 fps; 0.193 bpp
Аудио 1: Russian; AC3; 48.0 KHz; 6ch; 448 Kbps MVO
Аудио 2: Russian; AC3; 48.0 KHz; 2ch; 192 Kbps MVO ТК Россия
Аудио 3: Russian; AC3; 48.0 KHz; 2ch; 192 Kbps AVO Юрий Живов
Аудио 4: English; AAC; 48.0 KHz; 2ch; 160 Kbps
Аудио 5: English; AC3; 48.0 KHz; 6ch; 448 Kbps

MediaInfo

Format : Matroska
Format version : Version 4 / Version 2
File size : 7.22 GiB
Duration : 1 h 30 min
Overall bit rate : 11.4 Mb/s
Encoded date : UTC 2017-02-08 06:48:30
Writing application : mkvmerge v8.3.0 ('Over the Horizon') 64bit
Writing library : libebml v1.3.1 + libmatroska v1.4.2
Attachments : poster.jpg
Video
ID : 1
Format : AVC
Format/Info : Advanced Video Codec
Format profile : High@L4
Format settings, CABAC : Yes
Format settings, ReFrames : 4 frames
Codec ID : V_MPEG4/ISO/AVC
Duration : 1 h 30 min
Bit rate mode : Constant
Bit rate : 10 000 kb/s
Width : 1 920 pixels
Height : 1 080 pixels
Display aspect ratio : 16:9
Frame rate mode : Constant
Frame rate : 25.000 FPS
Standard : PAL
Color space : YUV
Chroma subsampling : 4:2:0
Bit depth : 8 bits
Scan type : Progressive
Bits/(Pixel*Frame) : 0.193
Stream size : 6.32 GiB (88%)
Language : English
Default : Yes
Forced : No
Color range : Limited
Color primaries : BT.709
Transfer characteristics : BT.709
Matrix coefficients : BT.709
Audio #1
ID : 2
Format : AC-3
Format/Info : Audio Coding 3
Mode extension : CM (complete main)
Format settings, Endianness : Big
Codec ID : A_AC3
Duration : 1 h 30 min
Bit rate mode : Constant
Bit rate : 448 kb/s
Channel(s) : 6 channels
Channel positions : Front: L C R, Side: L R, LFE
Sampling rate : 48.0 kHz
Frame rate : 31.250 FPS (1536 spf)
Bit depth : 16 bits
Compression mode : Lossy
Stream size : 291 MiB (4%)
Title : MVO
Language : Russian
Default : No
Forced : No
Audio #2
ID : 3
Format : AC-3
Format/Info : Audio Coding 3
Mode extension : CM (complete main)
Format settings, Endianness : Big
Codec ID : A_AC3
Duration : 1 h 30 min
Bit rate mode : Constant
Bit rate : 192 kb/s
Channel(s) : 2 channels
Channel positions : Front: L R
Sampling rate : 48.0 kHz
Frame rate : 31.250 FPS (1536 spf)
Bit depth : 16 bits
Compression mode : Lossy
Stream size : 125 MiB (2%)
Title : MVO ТК Россия
Language : Russian
Default : Yes
Forced : No
Audio #3
ID : 4
Format : AC-3
Format/Info : Audio Coding 3
Mode extension : CM (complete main)
Format settings, Endianness : Big
Codec ID : A_AC3
Duration : 1 h 30 min
Bit rate mode : Constant
Bit rate : 192 kb/s
Channel(s) : 2 channels
Channel positions : Front: L R
Sampling rate : 48.0 kHz
Frame rate : 31.250 FPS (1536 spf)
Bit depth : 16 bits
Compression mode : Lossy
Stream size : 125 MiB (2%)
Title : AVO Юрий Живов
Language : Russian
Default : No
Forced : No
Audio #4
ID : 5
Format : AAC
Format/Info : Advanced Audio Codec
Format profile : LC
Codec ID : A_AAC
Duration : 1 h 30 min
Bit rate : 125 kb/s
Channel(s) : 2 channels
Channel positions : Front: L R
Sampling rate : 48.0 kHz
Frame rate : 46.875 FPS (1024 spf)
Compression mode : Lossy
Stream size : 81.5 MiB (1%)
Language : English
Default : No
Forced : No
Audio #5
ID : 6
Format : AC-3
Format/Info : Audio Coding 3
Mode extension : CM (complete main)
Format settings, Endianness : Big
Codec ID : A_AC3
Duration : 1 h 30 min
Bit rate mode : Constant
Bit rate : 448 kb/s
Channel(s) : 6 channels
Channel positions : Front: L C R, Side: L R, LFE
Sampling rate : 48.0 kHz
Frame rate : 31.250 FPS (1536 spf)
Bit depth : 16 bits
Compression mode : Lossy
Stream size : 291 MiB (4%)
Language : English
Default : No
Forced : No
Text #1
ID : 7
Format : UTF-8
Codec ID : S_TEXT/UTF8
Codec ID/Info : UTF-8 Plain Text
Duration : 1 h 26 min
Bit rate : 101 b/s
Count of elements : 1308
Stream size : 64.5 KiB (0%)
Language : Russian
Default : No
Forced : No
Text #2
ID : 8
Format : UTF-8
Codec ID : S_TEXT/UTF8
Codec ID/Info : UTF-8 Plain Text
Duration : 1 h 26 min
Bit rate : 62 b/s
Count of elements : 1300
Stream size : 39.8 KiB (0%)
Language : English
Default : No
Forced : No

Скриншоты

[Profile]  [PM] 
Display posts:    
Reply to topic

Current time is: 15-Dec 12:01

All times are UTC + 2



You cannot post new topics in this forum
You cannot reply to topics in this forum
You cannot edit your posts in this forum
You cannot delete your posts in this forum
You cannot vote in polls in this forum
You cannot attach files in this forum
You cannot download files in this forum