Маленькая Англия / Mikra Anglia (Пантелис Вулгарис / Pantelis Voulgaris) [2013, Греция, драма, мелодрама, BDRip 720p] VO (PashaUP) + Sub Rus, Gre, Eng

Reply to topic
 
Author
Message

Faust ®

Gender: Unknown

Longevity: 8 years 2 months

Posts: 13739

Reputation: 0 [+] [-]

Faust · Post 12-Feb-2017 13:00

[Quote] 

Маленькая Англия / Mikra Anglia
Страна: Греция
Жанр: драма, мелодрама
Год выпуска: 2013
Продолжительность: 02:33:00
Перевод: Одноголосый закадровый PashaUP
Cубтитры: русские, греческие, английские
Оригинальная аудиодорожка: Greek
Режиссер: Пантелис Вулгарис / Pantelis Voulgaris
В ролях: Пинелопи Цилика, София Коккали, Анеца Пападопулу, Максимос Мурмурис, Василис Василакис, Кристос Калаврузос
Описание: Экранизация романа Иоанны Каристиани "Жасминовый остров".
Сюжет романа повествует о судьбе семьи с греческого острова Андрос. Мечта любой девушки острова - выйти замуж за капитана и обрести положение в обществе и богатство. Но ведет ли такой путь к счастью?
Сэмпл: http://sendfile.su/1306375
Тип релиза: BDRip 720p [рип от VietHD]
Контейнер: MKV
Видео: 1280x538 (2.40:1), 25.000 fps, AVC, ~6116 Kbps, 0.355 bits/pixel
Аудио: Russian, 48.0 KHz, AC3, 2 ch, 192 Kbps - VO PashaUP
Аудио 2: Greek, 48.0 KHz, AC3, 6 ch, 448 Kbps
Формат субтитров: softsub (SRT)
аудио и субтитры подогнаны по просьбе edus67

MediaInfo

General
Unique ID : 190637486334765146909549758955069303513 (0x8F6B71C0A0287A16A3CBEBA5FF52EAD9)
Complete name : A:\Little.England.2013.BDRip.720p.mkv
Format : Matroska
Format version : Version 4 / Version 2
File size : 7.37 GiB
Duration : 2h 33mn
Overall bit rate : 6 893 Kbps
Encoded date : UTC 2017-02-07 05:29:00
Writing application : mkvmerge v7.4.0 ('Circles') 64bit built on Dec 12 2014 12:19:56
Writing library : libebml v1.3.0 + libmatroska v1.4.1
_STATISTICS_WRITING_APP : mkvmerge v7.4.0 ('Circles') 64bit built on Dec 12 2014 12:19:56
_STATISTICS_WRITING_DATE_UTC : 2017-02-07 05:29:00
_STATISTICS_TAGS : BPS DURATION NUMBER_OF_FRAMES NUMBER_OF_BYTES
DURATION : 02:27:58.437000000
NUMBER_OF_FRAMES : 1294
NUMBER_OF_BYTES : 74257
Video
ID : 1
Format : AVC
Format/Info : Advanced Video Codec
Format profile : High@L4.1
Format settings, CABAC : Yes
Format settings, ReFrames : 12 frames
Codec ID : V_MPEG4/ISO/AVC
Duration : 2h 33mn
Bit rate : 6 116 Kbps
Width : 1 280 pixels
Height : 538 pixels
Display aspect ratio : 2.40:1
Frame rate mode : Constant
Frame rate : 25.000 fps
Color space : YUV
Chroma subsampling : 4:2:0
Bit depth : 8 bits
Scan type : Progressive
Bits/(Pixel*Frame) : 0.355
Stream size : 6.54 GiB (89%)
Writing library : x264 core 148 r2744kMod b97ae06
Encoding settings : cabac=1 / ref=12 / deblock=1:-3:-3 / analyse=0x3:0x133 / me=umh / subme=10 / psy=1 / fade_compensate=0.00 / psy_rd=1.00:0.00 / mixed_ref=1 / me_range=24 / chroma_me=1 / trellis=2 / 8x8dct=1 / cqm=0 / deadzone=21,11 / fast_pskip=0 / chroma_qp_offset=-2 / threads=17 / lookahead_threads=2 / sliced_threads=0 / nr=0 / decimate=0 / interlaced=0 / bluray_compat=0 / constrained_intra=0 / bframes=7 / b_pyramid=2 / b_adapt=2 / b_bias=0 / direct=3 / weightb=1 / open_gop=0 / weightp=2 / keyint=250 / keyint_min=25 / scenecut=40 / intra_refresh=0 / rc_lookahead=60 / rc=crf / mbtree=0 / crf=16.3000 / qcomp=0.60 / qpmin=0 / qpmax=69 / qpstep=4 / vbv_maxrate=62500 / vbv_bufsize=78125 / crf_max=0.0 / nal_hrd=none / filler=0 / ip_ratio=1.30 / pb_ratio=1.20 / aq=3:0.75
Language : English
Default : Yes
Forced : No
Matrix coefficients : BT.709
_STATISTICS_WRITING_APP : mkvmerge v7.4.0 ('Circles') 64bit built on Dec 12 2014 12:19:56
_STATISTICS_WRITING_DATE_UTC : 2017-02-07 05:29:00
_STATISTICS_TAGS : BPS DURATION NUMBER_OF_FRAMES NUMBER_OF_BYTES
DURATION : 02:33:00.080000000
NUMBER_OF_FRAMES : 229502
NUMBER_OF_BYTES : 7174625706
Audio #1
ID : 2
Format : AC-3
Format/Info : Audio Coding 3
Mode extension : CM (complete main)
Format settings, Endianness : Big
Codec ID : A_AC3
Duration : 2h 33mn
Bit rate mode : Constant
Bit rate : 192 Kbps
Channel(s) : 2 channels
Channel positions : Front: L R
Sampling rate : 48.0 KHz
Bit depth : 16 bits
Compression mode : Lossy
Stream size : 210 MiB (3%)
Title : VO PashaUP
Language : Russian
Default : Yes
Forced : No
Audio #2
ID : 3
Format : AC-3
Format/Info : Audio Coding 3
Mode extension : CM (complete main)
Format settings, Endianness : Big
Codec ID : A_AC3
Duration : 2h 33mn
Bit rate mode : Constant
Bit rate : 448 Kbps
Channel(s) : 6 channels
Channel positions : Front: L C R, Side: L R, LFE
Sampling rate : 48.0 KHz
Bit depth : 16 bits
Compression mode : Lossy
Stream size : 490 MiB (6%)
Language : Greek
Default : No
Forced : No
Text #1
ID : 4
Format : UTF-8
Codec ID : S_TEXT/UTF8
Codec ID/Info : UTF-8 Plain Text
Language : Russian
Default : No
Forced : No
Text #2
ID : 5
Format : UTF-8
Codec ID : S_TEXT/UTF8
Codec ID/Info : UTF-8 Plain Text
Language : Greek
Default : No
Forced : No
Text #3
ID : 6
Format : UTF-8
Codec ID : S_TEXT/UTF8
Codec ID/Info : UTF-8 Plain Text
Language : English
Default : No
Forced : No
Menu
00:00:00.000 : en:00:00:00.000
00:07:21.520 : en:00:07:21.520
00:26:21.520 : en:00:26:21.520
00:37:53.680 : en:00:37:53.680
00:55:01.360 : en:00:55:01.360
01:07:21.040 : en:01:07:21.040
01:19:48.400 : en:01:19:48.400
01:32:24.400 : en:01:32:24.400
01:40:02.800 : en:01:40:02.800
01:59:23.920 : en:01:59:23.920
02:08:17.200 : en:02:08:17.200
02:29:00.400 : en:02:29:00.400

Скриншоты

[Profile]  [PM] 
Display posts:    
Reply to topic

Current time is: 15-Dec 04:08

All times are UTC + 2



You cannot post new topics in this forum
You cannot reply to topics in this forum
You cannot edit your posts in this forum
You cannot delete your posts in this forum
You cannot vote in polls in this forum
You cannot attach files in this forum
You cannot download files in this forum