Просто потрясающе / Absolutely Fabulous: The Movie (Мэнди Флетчер / Mandie Fletcher) [2016, Великобритания, США, комедия, криминал, BDRip 720p] MVO (iTunes) + Sub Rus, Eng + Original Eng

Reply to topic
 
Author
Message

Faust ®

Gender: Unknown

Longevity: 8 years 2 months

Posts: 13739

Reputation: 0 [+] [-]

Faust · Post 12-Feb-2017 13:00

[Quote] 

Просто потрясающе / Absolutely Fabulous: The Movie
Страна: Великобритания, США
Студия: British Film Company
Жанр: Комедия, криминал
Год выпуска: 2016
Продолжительность: 01:30:55
Перевод: Профессиональный (многоголосый закадровый) iTunes
Cубтитры: Rus, Eng
Оригинальная аудиодорожка: английский
Режиссер: Мэнди Флетчер / Mandie Fletcher
В ролях: Лулу, Гвендолин Кристи, Дженнифер Сондерс, Джоанна Ламли, Джулия Савалия, Джейн Хоррокс, Джун Уитфилд, Мо Гаффни, Кристофер Райан
Описание: Эдина и Пэтси все еще источают гламур и блеск живя той красивой жизнью, к которой они так привыкли. Шоппинг, выпивохинг и клаббинг по всему Лондону, и в самых модных его частях. Обвиненные в инциденте на одном из модных показов, они оказываются в центре медийного шторма. Во избежания преследования папарацци они сбегают (попутно забыв деньги) на очень дорогую Французскую Ривьеру, с целью остаться здесь навсегда.

Тип релиза: BDRip 720p
Контейнер: MKV
Видео: MPEG-4 AVC, 4002 Кбит/с, 1280x536, 23,976 fps
Аудио: Rus, AC3, 192 kb/s (2 ch), 48 kHz
Аудио 2: Eng, AC3, 640 kb/s (6 ch), 48 kHz
Формат субтитров: softsub (SRT)

MediaInfo

Format : Matroska
Format version : Version 4 / Version 2
File size : 3.13 GiB
Duration : 1h 30mn
Overall bit rate : 4 932 Kbps
Movie name : Просто потрясающе. (Tonik)
Encoded date : UTC 2017-02-06 05:47:43
Writing application : mkvmerge v7.1.0 ('Good Love') 64bit built on Jul 27 2014 13:06:55
Writing library : libebml v1.3.0 + libmatroska v1.4.1
_STATISTICS_WRITING_APP : mkvmerge v7.1.0 ('Good Love') 64bit built on Jul 27 2014 13:06:55
_STATISTICS_WRITING_DATE_UTC : 2017-02-06 05:47:43
_STATISTICS_TAGS : BPS DURATION NUMBER_OF_FRAMES NUMBER_OF_BYTES
DURATION : 01:30:56.320000000
NUMBER_OF_FRAMES : 170510
NUMBER_OF_BYTES : 130951680
Video
ID : 1
Format : AVC
Format/Info : Advanced Video Codec
Format profile : High@L4.1
Format settings, CABAC : Yes
Format settings, ReFrames : 12 frames
Codec ID : V_MPEG4/ISO/AVC
Duration : 1h 30mn
Bit rate : 4 002 Kbps
Width : 1 280 pixels
Height : 536 pixels
Display aspect ratio : 2.40:1
Frame rate mode : Constant
Frame rate : 23.976 fps
Color space : YUV
Chroma subsampling : 4:2:0
Bit depth : 8 bits
Scan type : Progressive
Bits/(Pixel*Frame) : 0.243
Stream size : 2.54 GiB (81%)
Writing library : x264 core 148 r2721kMod 72d53ab
Encoding settings : cabac=1 / ref=12 / deblock=1:-3:-3 / analyse=0x3:0x133 / me=umh / subme=10 / psy=1 / fade_compensate=0.00 / psy_rd=1.00:0.00 / mixed_ref=1 / me_range=32 / chroma_me=1 / trellis=2 / 8x8dct=1 / cqm=0 / deadzone=21,11 / fast_pskip=0 / chroma_qp_offset=-2 / threads=8 / lookahead_threads=1 / sliced_threads=0 / nr=0 / decimate=0 / interlaced=0 / bluray_compat=0 / constrained_intra=0 / fgo=0 / bframes=9 / b_pyramid=2 / b_adapt=2 / b_bias=0 / direct=3 / weightb=1 / open_gop=0 / weightp=2 / keyint=250 / keyint_min=23 / scenecut=40 / intra_refresh=0 / rc_lookahead=150 / rc=crf / mbtree=0 / crf=16.5000 / qcomp=0.60 / qpmin=0 / qpmax=69 / qpstep=4 / vbv_maxrate=62500 / vbv_bufsize=78125 / crf_max=0.0 / nal_hrd=none / filler=0 / ip_ratio=1.40 / pb_ratio=1.30 / aq=3:0.80 / zones=4264,4326,crf=14.5/63189,63273,crf=14.0/90104,90491,crf=14.5
Language : English
Default : Yes
Forced : No
_STATISTICS_WRITING_APP : mkvmerge v7.1.0 ('Good Love') 64bit built on Jul 27 2014 13:06:55
_STATISTICS_WRITING_DATE_UTC : 2017-02-06 05:47:43
_STATISTICS_TAGS : BPS DURATION NUMBER_OF_FRAMES NUMBER_OF_BYTES
DURATION : 01:30:55.325000000
NUMBER_OF_FRAMES : 130797
NUMBER_OF_BYTES : 2794949675
Audio #1
ID : 2
Format : AC-3
Format/Info : Audio Coding 3
Mode extension : CM (complete main)
Format settings, Endianness : Big
Codec ID : A_AC3
Duration : 1h 30mn
Bit rate mode : Constant
Bit rate : 192 Kbps
Channel(s) : 2 channels
Channel positions : Front: L R
Sampling rate : 48.0 KHz
Bit depth : 16 bits
Compression mode : Lossy
Stream size : 125 MiB (4%)
Title : iTunes
Language : Russian
Default : Yes
Forced : No
Audio #2
ID : 3
Format : AC-3
Format/Info : Audio Coding 3
Mode extension : CM (complete main)
Format settings, Endianness : Big
Codec ID : A_AC3
Duration : 1h 30mn
Bit rate mode : Constant
Bit rate : 640 Kbps
Channel(s) : 6 channels
Channel positions : Front: L C R, Side: L R, LFE
Sampling rate : 48.0 KHz
Bit depth : 16 bits
Compression mode : Lossy
Stream size : 416 MiB (13%)
Language : English
Default : No
Forced : No
Text #1
ID : 4
Format : UTF-8
Codec ID : S_TEXT/UTF8
Codec ID/Info : UTF-8 Plain Text
Title : Forced
Language : Russian
Default : Yes
Forced : No
Text #2
ID : 5
Format : UTF-8
Codec ID : S_TEXT/UTF8
Codec ID/Info : UTF-8 Plain Text
Language : Russian
Default : No
Forced : No
Text #3
ID : 6
Format : UTF-8
Codec ID : S_TEXT/UTF8
Codec ID/Info : UTF-8 Plain Text
Language : English
Default : No
Forced : No
Text #4
ID : 7
Format : UTF-8
Codec ID : S_TEXT/UTF8
Codec ID/Info : UTF-8 Plain Text
Title : SDH
Language : English
Default : No
Forced : No
Menu
00:00:00.000 : en:Chapter 1
00:02:49.544 : en:Chapter 2
00:06:38.565 : en:Chapter 3
00:11:13.882 : en:Chapter 4
00:14:07.055 : en:Chapter 5
00:17:13.157 : en:Chapter 6
00:21:21.489 : en:Chapter 7
00:24:43.857 : en:Chapter 8
00:29:31.895 : en:Chapter 9
00:33:44.814 : en:Chapter 10
00:36:27.685 : en:Chapter 11
00:41:54.137 : en:Chapter 12
00:45:33.189 : en:Chapter 13
00:49:46.358 : en:Chapter 14
00:53:40.509 : en:Chapter 15
00:56:38.186 : en:Chapter 16
01:02:11.061 : en:Chapter 17
01:05:28.883 : en:Chapter 18
01:09:12.273 : en:Chapter 19
01:12:09.951 : en:Chapter 20
01:14:16.410 : en:Chapter 21
01:17:19.176 : en:Chapter 22
01:20:00.629 : en:Chapter 23
01:22:45.669 : en:Chapter 24

Скриншоты

[Profile]  [PM] 
Display posts:    
Reply to topic

Current time is: 15-Dec 04:39

All times are UTC + 2



You cannot post new topics in this forum
You cannot reply to topics in this forum
You cannot edit your posts in this forum
You cannot delete your posts in this forum
You cannot vote in polls in this forum
You cannot attach files in this forum
You cannot download files in this forum