Уиджи. Проклятие доски дьявола / Ouija: Origin of Evil (Майк Флэнеган / Mike Flanagan) [2016, Япония, США, ужасы, триллер, BDRip-AVC] Dub + Original + Sub (rus, eng)

Reply to topic
 
Author
Message

Satyr ®

Gender: Unknown

Longevity: 11 years

Posts: 15401

Reputation: 55 [+] [-]

Satyr · Post 12-Feb-2017 13:00

[Quote] 

Уиджи. Проклятие доски дьявола / Ouija: Origin of Evil«Вызывая духов, никогда не знаешь, кто явится на зов»- Страна: Япония, США
Жанр: ужасы, триллер
Год выпуска: 2016
Продолжительность: 01:38:54
Перевод: Профессиональный (дублированный) (BD CEE)
Оригинальная аудиодорожка: английский
Субтитры: русские (форс., полные) английские (полные)
Навигация по главам: есть
Режиссер: Майк Флэнеган / Mike Flanagan
В ролях: Анналиса Бассо (Lina Zander), Элизабет Ризер (Alice Zander), Лулу Уилсон (Doris Zander), Генри Томас (Father Tom Hogan), Паркер Мак (Mikey), Холли Чарлтон (Ellie), Алексис Дж. Залл (Betty), Даг Джонс (Ghoul Marcus), Кейт Сигел (Jenny Browning), Сэм Андерсон (Mr. Browning), Челси Гонзалез (Gloria), Линкольн Мелчер (Jack)
Описание: Спиритическая доска Уиджи никогда не была просто игрой. Она служила порталом в мир мертвых. Столетиями она служила вратами между миром живых и царством мертвых. Но однажды духи выйдут из-под контроля, и первородное зло овладеет душой ребенка...- -Качество: BDRip-AVC (исходник - BDRemux|Ouija.Origin.of.Evil.2016.1080p.BluRay.REMUX.AVC.DTS-HD.MA.5.1-FGT)
Формат видео: MKV
Видео: x264, 1152x622 (1.85:1) 23,976 fps, ~2114 kbps, 0.123 bit/pixel
Аудио 1: 48 kHz, AC3 Dolby Digital, 3/2 (L,C,R,l,r) + LFE ch, ~448 kbps [русский]
Аудио 2: 48 kHz, AC3 Dolby Digital, 3/2 (L,C,R,l,r) + LFE ch, ~448 kbps [английский]
Формат субтитров: softsub (SRT)-

MediaInfo | x264 log

Format : Matroska
Format version : Version 4 / Version 2
File size : 2.12 GiB
Duration : 1 h 38 min
Overall bit rate : 3 071 kb/s
Movie name : Уиджи. Проклятие доски дьявола / Ouija: Origin of Evil (2016) :: AFM ::
Encoded date : UTC 2017-02-11 17:19:38
Writing application : mkvmerge v8.3.0 ('Over the Horizon') 32bit
Writing library : libebml v1.3.1 + libmatroska v1.4.2
Video
ID : 1
Format : AVC
Format/Info : Advanced Video Codec
Format profile : High@L4.1
Format settings, CABAC : Yes
Format settings, ReFrames : 11 frames
Codec ID : V_MPEG4/ISO/AVC
Duration : 1 h 38 min
Bit rate : 2 114 kb/s
Width : 1 152 pixels
Height : 622 pixels
Display aspect ratio : 1.85:1
Frame rate mode : Constant
Frame rate : 23.976 (24000/1001) FPS
Color space : YUV
Chroma subsampling : 4:2:0
Bit depth : 8 bits
Scan type : Progressive
Bits/(Pixel*Frame) : 0.123
Stream size : 1.46 GiB (69%)
Title : BDRip by AFM
Writing library : x264 core 148 r2762+56 6284cf3 t_mod_Custom [8-bit@all X86_64]
Encoding settings : cabac=1 / ref=11 / deblock=1:-3:-2 / analyse=0x3:0x113 / me=umh / subme=10 / psy=1 / fade_compensate=0.00 / psy_rd=1.00:0.00 / mixed_ref=1 / me_range=32 / chroma_me=1 / trellis=2 / 8x8dct=1 / cqm=0 / deadzone=21,11 / fast_pskip=0 / chroma_qp_offset=-2 / threads=6 / lookahead_threads=1 / sliced_threads=0 / nr=0 / decimate=1 / interlaced=0 / bluray_compat=0 / constrained_intra=0 / fgo=0 / bframes=14 / b_pyramid=2 / b_adapt=2 / b_bias=0 / direct=1 / weightb=1 / open_gop=0 / weightp=2 / keyint=240 / keyint_min=23 / scenecut=40 / intra_refresh=0 / rc_lookahead=60 / rc=crf / mbtree=0 / crf=19.4100 / qcomp=0.65 / qpmin=0:0:0 / qpmax=69:69:69 / qpstep=4 / vbv_maxrate=50000 / vbv_bufsize=62500 / crf_max=0.0 / nal_hrd=none / filler=0 / ip_ratio=1.35 / pb_ratio=1.30 / aq=3:0.90 / aq-sensitivity=10.00 / aq-factor=1.00:1.00:1.00 / aq2=0 / aq3=0 / zones=134020,142291,q=30
Language : English
Default : Yes
Forced : No
Audio #1
ID : 2
Format : AC-3
Format/Info : Audio Coding 3
Mode extension : CM (complete main)
Format settings, Endianness : Big
Codec ID : A_AC3
Duration : 1 h 38 min
Bit rate mode : Constant
Bit rate : 448 kb/s
Channel(s) : 6 channels
Channel positions : Front: L C R, Side: L R, LFE
Sampling rate : 48.0 kHz
Frame rate : 31.250 FPS (1536 spf)
Compression mode : Lossy
Stream size : 317 MiB (15%)
Title : Dub, AC3 5.1 ~448 kbps
Language : Russian
Default : Yes
Forced : No
Audio #2
ID : 3
Format : AC-3
Format/Info : Audio Coding 3
Mode extension : CM (complete main)
Format settings, Endianness : Big
Codec ID : A_AC3
Duration : 1 h 38 min
Bit rate mode : Constant
Bit rate : 448 kb/s
Channel(s) : 6 channels
Channel positions : Front: L C R, Side: L R, LFE
Sampling rate : 48.0 kHz
Frame rate : 31.250 FPS (1536 spf)
Compression mode : Lossy
Stream size : 317 MiB (15%)
Title : Original, AC3 5.1 ~448 kbps
Language : English
Default : No
Forced : No
Text #1
ID : 4
Format : UTF-8
Codec ID : S_TEXT/UTF8
Codec ID/Info : UTF-8 Plain Text
Title : forced
Language : Russian
Default : Yes
Forced : No
Text #2
ID : 5
Format : UTF-8
Codec ID : S_TEXT/UTF8
Codec ID/Info : UTF-8 Plain Text
Language : Russian
Default : No
Forced : No
Text #3
ID : 6
Format : UTF-8
Codec ID : S_TEXT/UTF8
Codec ID/Info : UTF-8 Plain Text
Language : English
Default : No
Forced : No
Menu
00:00:00.000 : en:Chapter 01
00:05:30.747 : en:Chapter 02
00:09:12.469 : en:Chapter 03
00:14:19.525 : en:Chapter 04
00:21:37.880 : en:Chapter 05
00:25:24.314 : en:Chapter 06
00:30:09.850 : en:Chapter 07
00:35:53.318 : en:Chapter 08
00:39:04.384 : en:Chapter 09
00:43:53.464 : en:Chapter 10
00:48:49.677 : en:Chapter 11
00:55:11.683 : en:Chapter 12
00:58:47.607 : en:Chapter 13
01:05:27.715 : en:Chapter 14
01:10:46.284 : en:Chapter 15
01:14:26.420 : en:Chapter 16
01:18:25.075 : en:Chapter 17
01:21:48.403 : en:Chapter 18
01:27:42.841 : en:Chapter 19
01:31:03.291 : en:Chapter 20

x264

x264 [info]: frame I:1137 Avg QP:16.34 size: 76794
x264 [info]: frame P:24859 Avg QP:18.06 size: 26014
x264 [info]: frame B:116295 Avg QP:19.90 size: 7547
x264 [info]: consecutive B-frames: 1.2% 0.4% 2.0% 7.7% 9.1% 63.9% 7.3% 1.6% 1.4% 0.9% 1.2% 0.8% 1.1% 1.0% 0.4%
x264 [info]: mb I I16..4: 5.2% 85.2% 9.6%
x264 [info]: mb P I16..4: 0.6% 5.4% 0.4% P16..4: 39.0% 29.6% 17.7% 0.0% 0.0% skip: 7.3%
x264 [info]: mb B I16..4: 0.0% 0.2% 0.0% B16..8: 40.6% 8.8% 2.1% direct: 3.2% skip:45.1% L0:47.1% L1:47.6% BI: 5.3%
x264 [info]: 8x8 transform intra:84.5% inter:62.4%
x264 [info]: coded y,uvDC,uvAC intra: 87.1% 83.1% 68.5% inter: 19.7% 10.8% 1.3%
x264 [info]: i16 v,h,dc,p: 61% 12% 11% 16%
x264 [info]: i8 v,h,dc,ddl,ddr,vr,hd,vl,hu: 10% 7% 9% 10% 14% 14% 13% 12% 12%
x264 [info]: i4 v,h,dc,ddl,ddr,vr,hd,vl,hu: 8% 6% 3% 11% 16% 16% 14% 12% 13%
x264 [info]: i8c dc,h,v,p: 44% 21% 19% 16%
x264 [info]: Weighted P-Frames: Y:5.2% UV:3.1%
x264 [info]: ref P L0: 43.6% 7.9% 18.7% 7.4% 6.3% 4.5% 4.1% 2.1% 2.0% 1.6% 1.7% 0.1% 0.0%
x264 [info]: ref B L0: 62.9% 14.5% 8.3% 4.3% 3.1% 2.6% 2.0% 1.2% 0.7% 0.3%
x264 [info]: ref B L1: 90.5% 9.5%
x264 [info]: kb/s:2172.58

Скриншоты

с названием

[Profile]  [PM] 
Display posts:    
Reply to topic

Current time is: 13-Aug 16:25

All times are UTC + 2



You cannot post new topics in this forum
You cannot reply to topics in this forum
You cannot edit your posts in this forum
You cannot delete your posts in this forum
You cannot vote in polls in this forum
You cannot attach files in this forum
You cannot download files in this forum