Голос монстра / A Monster Calls (Хуан Антонио Байона / Juan Antonio Bayona) [2016, США, Испания, фэнтези, драма, BDRip] VO (Solod)

Reply to topic
 
Author
Message

Satyr ®

Gender: Unknown

Longevity: 10 years

Posts: 15328

Reputation: 54 [+] [-]

Satyr · Post 12-Feb-2017 13:00

[Quote] 

Голос монстра / A Monster Calls
Страна: США, Испания
Жанр: фэнтези, драма
Год выпуска: 2016
Продолжительность: 01:48:25
Перевод: Одноголосый закадровый Solod
Cубтитры: нет
Режиссер: Хуан Антонио Байона / Juan Antonio Bayona
В ролях: Льюис МакДугалл, Сигурни Уивер, Фелисити Джонс, Тоби Кеббелл, Лиам Нисон, Бен Моор, Джеймс Мелвилл, Оливер Стир, Доминик Бойл, Дженнифер Лим, Макс Габбей
Описание: Поражающая воображение история о мальчике Конноре и монстре из его снов. Когда Коннору особенно тяжело, происходит нечто невероятное — старое тисовое дерево за окном оживает и превращается в громадное чудовище. По ночам монстр рассказывает Коннору истории, которые помогут ему понять, что даже когда весь мир рушится, можно найти в себе силы и не отчаиваться.
Доп. информация:
Исходник - A.Monster.Calls.2016.1080p.BluRay.REMUX.AVC.DD5.1-FGT
Релиз группа - Megapeer
За перевод спасибо Solod.
Сэмпл
Качество видео: BDRip
Формат видео: AVI
Видео: 688x288 (2.39:1), 23.976 fps, XviD build 73 ~827 kbps avg, 0.17 bit/pixel
Аудио: 48 kHz, MPEG Layer 3, 2 ch, ~128.00 kbps avg-

MediaInfo

GeneralComplete name               : D:\Rips\A.Monster.Calls.2016.BDRip.745MB.L.MegaPeer.aviFormat                      : AVIFormat/Info                 : Audio Video InterleaveFile size                   : 745 MiBDuration                    : 1 h 48 minOverall bit rate            : 961 kb/s
VideoID : 0Format : MPEG-4 VisualFormat profile : Advanced Simple@L5Format settings, BVOP : 1Format settings, QPel : NoFormat settings, GMC : No warppointsFormat settings, Matrix : CustomCodec ID : XVIDCodec ID/Hint : XviDDuration : 1 h 48 minBit rate : 827 kb/sWidth : 688 pixelsHeight : 288 pixelsDisplay aspect ratio : 2.40:1Frame rate : 23.976 (24000/1001) FPSColor space : YUVChroma subsampling : 4:2:0Bit depth : 8 bitsScan type : ProgressiveCompression mode : LossyBits/(Pixel*Frame) : 0.174Stream size : 641 MiB (86%)Writing library : XviD 73
AudioID : 1Format : MPEG AudioFormat version : Version 1Format profile : Layer 3Mode : Joint stereoCodec ID : 55Codec ID/Hint : MP3Duration : 1 h 48 minBit rate mode : ConstantBit rate : 128 kb/sChannel(s) : 2 channelsSampling rate : 48.0 kHzCompression mode : LossyStream size : 99.3 MiB (13%)Alignment : Aligned on interleavesInterleave, duration : 167 ms (4.00 video frames)Interleave, preload duratio : 216 msTitle : SolodWriting library : LAME3.99rEncoding settings : -m j -V 4 -q 2 -lowpass 17 -b 128

Скриншоты

-
[Profile]  [PM] 
Display posts:    
Reply to topic

Current time is: 28-Jan 06:01

All times are UTC + 2



You cannot post new topics in this forum
You cannot reply to topics in this forum
You cannot edit your posts in this forum
You cannot delete your posts in this forum
You cannot vote in polls in this forum
You cannot attach files in this forum
You cannot download files in this forum