Бриджит Джонс 3 / Bridget Jones\'s Baby (Шэрон Магуайр / Sharon Maguire) [2016, Ирландия, Великобритания, Франция, США, мелодрама, комедия, BDRip-AVC] Dub + Sub (rus)

Reply to topic
 
Author
Message

Satyr ®

Gender: Unknown

Longevity: 10 years

Posts: 15281

Reputation: 54 [+] [-]

Satyr · Post 12-Feb-2017 17:05

[Quote] 

Бриджит Джонс 3
Bridget Jones's Baby
«Её ждут большие перемены»

Страна: Ирландия, Великобритания, Франция, США
Жанр: мелодрама, комедия
Год выпуска: 2016
Продолжительность: 02:02:38
Перевод: Профессиональный (полное дублирование) [Blu-ray CEE]
Субтитры: русские (форсированные)
Оригинальная аудиодорожка: нет
Режиссер: Шэрон Магуайр / Sharon Maguire
В ролях: Рене Зеллвегер, Колин Фёрт, Патрик Демпси, Джемма Джонс, Джим Бродбент, Сэлли Филлипс, Джулиан Райнд-Татт, Эмма Томпсон, Ширли Хендерсон, Бен Уиллбонд, Пол Бенталл, Агни Скотт
Описание:
Казалось бы, и карьера - в гору, и квартира - в центре Лондона, но она не была бы Бриджит Джонс, если бы не ее способность оказываться не в то время, не в том месте, не с тем мужчиной. И теперь она понятия не имеет, кто отец ее будущего ребенка: обаятельный миллиардер или известный адвокат. Одним словом, Бриджит Джонс в очень интересном положении.


Автор рипа: stalkerok
Сэмпл
Качество видео: BDRip-AVC [kinozal / Blu-ray Remux / 1080p]
Формат видео: MKV
Видео: 780 Кбит/сек, 726*304 (2,40:1), в 23,976 (24000/1001) кадра/сек, AVC
Аудио: русский, 64,0 Кбит/сек, 48,0 КГц / 24,0 КГц, 2 канала, AAC (HE-AAC / LC)
Навигация по главам: есть

x264/MediaInfo

x264 [info]: frame I:2069 Avg QP:17.54 size: 30889
x264 [info]: frame P:39435 Avg QP:19.56 size: 8776
x264 [info]: frame B:134930 Avg QP:22.25 size: 2282
Общее
Уникальный идентификатор : 219520567820385505371230855956514037293 (0xA5261F9D86D6F007ABFEA13EB2D95E2D)
Полное имя : M:\!!!!!!!!!!!!!!!!!!!\Bridget Jones's Baby (2016)\2\Bridget.Jones's.Baby.2016.BDRip-AVC.RUS.stalkerok.new-team.mkv
Формат : Matroska
Версия формата : Version 4 / Version 2
Размер файла : 742 Мбайт
Продолжительность : 2 ч. 2 м.
Общий поток : 846 Кбит/сек
Название фильма : Bridget Jones's Baby (2016) (Rip by stalkerok)
Дата кодирования : UTC 2017-02-09 19:09:32
Программа кодирования : mkvmerge v8.6.1 ('Flying') 64bit
Библиотека кодирования : libebml v1.3.3 + libmatroska v1.4.4
Видео
Идентификатор : 1
Формат : AVC
Формат/Информация : Advanced Video Codec
Профиль формата : High@L4.1
Параметр CABAC формата : Да
Параметр ReFrames формата : 14 кадров
Идентификатор кодека : V_MPEG4/ISO/AVC
Продолжительность : 2 ч. 2 м.
Битрейт : 780 Кбит/сек
Ширина : 726 пикселей
Высота : 304 пикселя
Соотношение сторон : 2,40:1
Режим частоты кадров : Постоянный
Частота кадров : 23,976 (24000/1001) кадра/сек
Цветовое пространство : YUV
Субдискретизация насыщенности : 4:2:0
Битовая глубина : 8 бит
Тип развёртки : Прогрессивная
Бит/(Пиксели*Кадры) : 0.147
Размер потока : 685 Мбайт (92%)
Заголовок : Bridget Jones's Baby (2016) (Rip by stalkerok)
Библиотека кодирования : x264 core 148 r2705+54 9f484c1 t_mod_Custom [8-bit@all X86_64]
Настройки программы : cabac=1 / ref=14 / deblock=1:-3:-2 / analyse=0x3:0x133 / me=umh / subme=11 / psy=1 / fade_compensate=0.00 / psy_rd=1.00:0.00 / mixed_ref=1 / me_range=32 / chroma_me=1 / trellis=2 / 8x8dct=1 / cqm=0 / deadzone=21,11 / fast_pskip=0 / chroma_qp_offset=-2 / threads=9 / lookahead_threads=2 / sliced_threads=0 / nr=0 / decimate=1 / interlaced=0 / bluray_compat=0 / constrained_intra=0 / fgo=0 / bframes=14 / b_pyramid=2 / b_adapt=2 / b_bias=0 / direct=3 / weightb=1 / open_gop=0 / weightp=2 / keyint=240 / keyint_min=23 / scenecut=40 / intra_refresh=0 / rc_lookahead=60 / rc=crf / mbtree=0 / crf=18.8500 / qcomp=0.65 / qpmin=0:0:0 / qpmax=69:69:69 / qpstep=4 / vbv_maxrate=50000 / vbv_bufsize=62500 / crf_max=0.0 / nal_hrd=none / filler=0 / ip_ratio=1.40 / pb_ratio=1.30 / aq=3:1.00 / aq-sensitivity=10.00 / aq-factor=1.00:1.00:1.00 / aq2=0 / aq3=0
Default : Да
Forced : Нет
Аудио
Идентификатор : 2
Формат : AAC
Формат/Информация : Advanced Audio Codec
Профиль формата : HE-AAC / LC
Идентификатор кодека : A_AAC
Продолжительность : 2 ч. 2 м.
Битрейт : 64,0 Кбит/сек
Каналы : 2 канала
Расположение каналов : Front: L R
Частота : 48,0 КГц / 24,0 КГц
Частота кадров : 23,438 кадра/сек (1024 spf)
Метод сжатия : С потерями
Задержка видео : 31 мс.
Размер потока : 56,1 Мбайт (8%)
Язык : Russian
Default : Да
Forced : Нет
Текст
Идентификатор : 3
Формат : UTF-8
Идентификатор кодека : S_TEXT/UTF8
Идентификатор кодека/Информация : UTF-8 Plain Text
Продолжительность : 1 ч. 50 м.
Битрейт : 3 бит/сек
Count of elements : 47
Размер потока : 2,78 Кбайт (0%)
Заголовок : Forced
Язык : Russian
Default : Да
Forced : Нет
Меню
00:00:00.000 : en:(01)00:00:00:000
00:08:49.528 : en:(02)00:08:49:528
00:16:21.562 : en:(03)00:16:21:562
00:24:09.655 : en:(04)00:24:09:655
00:29:54.625 : en:(05)00:29:54:625
00:34:51.297 : en:(06)00:34:51:297
00:41:29.235 : en:(07)00:41:29:235
00:47:42.400 : en:(08)00:47:42:400
00:52:05.454 : en:(09)00:52:05:454
00:57:44.835 : en:(10)00:57:44:835
01:03:38.313 : en:(11)01:03:38:313
01:08:12.880 : en:(12)01:08:12:880
01:13:17.475 : en:(13)01:13:17:475
01:20:48.551 : en:(14)01:20:48:551
01:27:32.997 : en:(15)01:27:32:997
01:37:28.175 : en:(16)01:37:28:175
01:43:18.442 : en:(17)01:43:18:442
01:48:10.567 : en:(18)01:48:10:567
01:51:53.664 : en:(19)01:51:53:664
01:56:07.793 : en:(20)01:56:07:793

Скриншоты

[Profile]  [PM] 
Display posts:    
Reply to topic

Current time is: 23-Jan 17:06

All times are UTC + 2



You cannot post new topics in this forum
You cannot reply to topics in this forum
You cannot edit your posts in this forum
You cannot delete your posts in this forum
You cannot vote in polls in this forum
You cannot attach files in this forum
You cannot download files in this forum