Пленник / Captive (Джерри Джеймсон / Jerry Jameson) [2015, США, триллер, драма, криминал, BDRip] Dub + Original Eng + Sub Rus, Eng

Reply to topic
 
Author
Message

Satyr ®

Online

Gender: Unknown

Longevity: 10 years

Posts: 14651

Reputation: 54 [+] [-]

Satyr · Post 12-Feb-2017 21:10

[Quote] 

-Пленник / Captive
«Faith. Redemption. Survival»- -Страна: США
Жанр: триллер, драма, криминал
Год выпуска: 2015
Продолжительность: 01:37:07-Перевод: Профессиональный (дублированный) iTunes
Cубтитры: русские, английские
Оригинальная аудиодорожка: английская-Режиссер: Джерри Джеймсон / Jerry Jameson-В ролях: Кейт Мара, Мими Роджерс, Майкл Кеннет Уильямс, Дэвид Ойелоуо, Леонор Варела, Мэтт Лоу, Джессика Ойелоуо, Э. Роджер Митчелл, Рэймонд Скотт Паркс, Дж. Карен Томас, Майкл Меркальди, Леон Приджен-Описание: Мать-одиночка, борющаяся с наркотической зависимостью, взята в заложники в собственной квартире, мужчиной, который сбежал из тюрьмы и убил судью, назначенного на его дело.- - -Качество видео: BDRip / Captive 2015 REMUX BluRay 1080p AVC DTS-HD MA5 1-iFT
Формат видео: AVI-Видео: XviD build 67, 720x400 (16:9), 23.976 fps, ~2376 kbps avg, 0.344 bit/pixel
Аудио 1: 48 kHz, AC3 Dolby Digital, 3/2 (L,C,R,l,r) + LFE ch, ~384 kbps avg
Аудио 2: 48 kHz, AC3 Dolby Digital, 3/2 (L,C,R,l,r) + LFE ch, ~448 kbps avg-

MediaInfo

Complete name : C:\Users\ИВАН\Desktop\Пленник (2015) BDRip\Пленник (2015) BDRip_ivanes20031987.avi
Format : AVI
Format/Info : Audio Video Interleave
Format profile : OpenDML
File size : 2.19 GiB
Duration : 1 h 37 min
Overall bit rate : 3 225 kb/s
Writing application : VirtualDubMod 1.5.10.3 | www.virtualdub-fr.org || (build 2550/release)
Writing library : VirtualDubMod build 2550/release
Video
ID : 0
Format : MPEG-4 Visual
Format profile : Advanced Simple@L5
Format settings, BVOP : 1
Format settings, QPel : No
Format settings, GMC : No warppoints
Format settings, Matrix : Custom
Codec ID : XVID
Codec ID/Hint : XviD
Duration : 1 h 37 min
Bit rate : 2 376 kb/s
Width : 720 pixels
Height : 400 pixels
Display aspect ratio : 16:9
Frame rate : 23.976 (24000/1001) FPS
Color space : YUV
Chroma subsampling : 4:2:0
Bit depth : 8 bits
Scan type : Progressive
Compression mode : Lossy
Bits/(Pixel*Frame) : 0.344
Stream size : 1.61 GiB (74%)
Writing library : XviD 67
Audio #1
ID : 1
Format : AC-3
Format/Info : Audio Coding 3
Mode extension : CM (complete main)
Format settings, Endianness : Big
Codec ID : 2000
Duration : 1 h 37 min
Bit rate mode : Constant
Bit rate : 384 kb/s
Channel(s) : 6 channels
Channel positions : Front: L C R, Side: L R, LFE
Sampling rate : 48.0 kHz
Frame rate : 31.250 FPS (1536 spf)
Bit depth : 16 bits
Compression mode : Lossy
Stream size : 267 MiB (12%)
Alignment : Split accross interleaves
Interleave, duration : 42 ms (1.00 video frame)
Interleave, preload duratio : 500 ms
Audio #2
ID : 2
Format : AC-3
Format/Info : Audio Coding 3
Mode extension : CM (complete main)
Format settings, Endianness : Big
Codec ID : 2000
Duration : 1 h 37 min
Bit rate mode : Constant
Bit rate : 448 kb/s
Channel(s) : 6 channels
Channel positions : Front: L C R, Side: L R, LFE
Sampling rate : 48.0 kHz
Frame rate : 31.250 FPS (1536 spf)
Bit depth : 16 bits
Compression mode : Lossy
Stream size : 311 MiB (14%)
Alignment : Split accross interleaves
Interleave, duration : 42 ms (1.00 video frame)
Interleave, preload duratio : 500 ms

Скриншот c названием фильма

Скриншоты

[Profile]  [PM] 
Display posts:    
Reply to topic

Current time is: 15-Dec 05:10

All times are UTC + 2



You cannot post new topics in this forum
You cannot reply to topics in this forum
You cannot edit your posts in this forum
You cannot delete your posts in this forum
You cannot vote in polls in this forum
You cannot attach files in this forum
You cannot download files in this forum