Уиджи: Доска Дьявола / Ouija (Стайлз Уайт / Stiles White) [2014, США, ужасы, триллер, BDRip-AVC] Dub + Sub (rus)

Reply to topic
 
Author
Message

Satyr ®

Online

Gender: Unknown

Longevity: 11 years

Posts: 15401

Reputation: 55 [+] [-]

Satyr · Post 13-Feb-2017 01:15

[Quote] 

Уиджи: Доска Дьявола
Ouija
«Продолжай убеждать себя, что это всего лишь игра»

Страна: США
Жанр: ужасы, триллер
Год выпуска: 2014
Продолжительность: 01:29:23
Перевод: Профессиональный (полное дублирование) [Blu-ray CEE]
Субтитры: русские (форсированные)
Оригинальная аудиодорожка: нет
Режиссер: Стайлз Уайт / Stiles White
В ролях: Оливия Кук, Ана Кото, Дарен Кагасофф, Бьянка А. Сантос, Дуглас Смит, Шелли Хенниг, Сьерра Хойерманн, Санни Мэй Эллисон, Лин Шэй, Клаудия Кац, Вивис Кортес, Робин Лайвли
Описание:
Компания друзей вынуждена столкнуться с их самыми страшными кошмарами, после того, как пробуждает темные силы с помощью спиритической доски.


Автор рипа: stalkerok
Сэмпл
Качество видео: BDRip-AVC
Формат видео: MKV
Видео: 1102 Кбит/сек, 888*370 (2,40:1), в 23,976 (24000/1001) кадра/сек, AVC
Аудио: русский, 64,0 Кбит/сек, 48,0 КГц / 24,0 КГц, 2 канала, AAC (HE-AAC / LC)
Навигация по главам: есть

Исходник

OUIJA_UPB2_HDCLUB

x264/MediaInfo

x264 [info]: frame I:1098 Avg QP:14.08 size: 50943
x264 [info]: frame P:25199 Avg QP:17.55 size: 13546
x264 [info]: frame B:102294 Avg QP:19.79 size: 3334
Общее
Уникальный идентификатор : 255186898966999045656219711474092455292 (0xBFFB3581EA15DB149314099C37BBB57C)
Полное имя : M:\!!!!!!!!!!!!!!!!!!!\Ouija (2014)\Ouija.2014.BDRip-AVC.RUS..stalkerok.new-team.mkv
Формат : Matroska
Версия формата : Version 4 / Version 2
Размер файла : 746 Мбайт
Продолжительность : 1 ч. 29 м.
Общий поток : 1167 Кбит/сек
Название фильма : Ouija (2014) (Rip by stalkerok)
Дата кодирования : UTC 2017-02-11 15:13:12
Программа кодирования : mkvmerge v8.6.1 ('Flying') 64bit
Библиотека кодирования : libebml v1.3.3 + libmatroska v1.4.4
Видео
Идентификатор : 1
Формат : AVC
Формат/Информация : Advanced Video Codec
Профиль формата : High@L4.1
Параметр CABAC формата : Да
Параметр ReFrames формата : 15 кадров
Идентификатор кодека : V_MPEG4/ISO/AVC
Продолжительность : 1 ч. 29 м.
Битрейт : 1102 Кбит/сек
Ширина : 888 пикселей
Высота : 370 пикселей
Соотношение сторон : 2,40:1
Режим частоты кадров : Постоянный
Частота кадров : 23,976 (24000/1001) кадра/сек
Цветовое пространство : YUV
Субдискретизация насыщенности : 4:2:0
Битовая глубина : 8 бит
Тип развёртки : Прогрессивная
Бит/(Пиксели*Кадры) : 0.140
Размер потока : 704 Мбайт (94%)
Заголовок : Ouija (2014) (Rip by stalkerok)
Библиотека кодирования : x264 core 148 r2705+54 9f484c1 t_mod_Custom [8-bit@all X86_64]
Настройки программы : cabac=1 / ref=15 / deblock=1:-3:-2 / analyse=0x3:0x133 / me=umh / subme=10 / psy=1 / fade_compensate=0.00 / psy_rd=1.00:0.00 / mixed_ref=1 / me_range=32 / chroma_me=1 / trellis=2 / 8x8dct=1 / cqm=0 / deadzone=21,11 / fast_pskip=0 / chroma_qp_offset=-2 / threads=12 / lookahead_threads=2 / sliced_threads=0 / nr=0 / decimate=0 / interlaced=0 / bluray_compat=0 / constrained_intra=0 / fgo=0 / bframes=15 / b_pyramid=2 / b_adapt=2 / b_bias=0 / direct=3 / weightb=1 / open_gop=0 / weightp=2 / keyint=240 / keyint_min=23 / scenecut=40 / intra_refresh=0 / rc_lookahead=60 / rc=2pass / mbtree=0 / bitrate=1102 / ratetol=1.0 / qcomp=0.65 / qpmin=0:0:0 / qpmax=69:69:69 / qpstep=4 / cplxblur=20.0 / qblur=0.5 / vbv_maxrate=50000 / vbv_bufsize=62500 / nal_hrd=none / filler=0 / ip_ratio=1.40 / pb_ratio=1.30 / aq=3:0.90 / aq-sensitivity=10.00 / aq-factor=1.00:1.00:1.00 / aq2=0 / aq3=0
Default : Да
Forced : Нет
Аудио
Идентификатор : 2
Формат : AAC
Формат/Информация : Advanced Audio Codec
Профиль формата : HE-AAC / LC
Идентификатор кодека : A_AAC
Продолжительность : 1 ч. 29 м.
Битрейт : 64,0 Кбит/сек
Каналы : 2 канала
Расположение каналов : Front: L R
Частота : 48,0 КГц / 24,0 КГц
Частота кадров : 23,438 кадра/сек (1024 spf)
Метод сжатия : С потерями
Задержка видео : 31 мс.
Размер потока : 40,9 Мбайт (5%)
Язык : Russian
Default : Да
Forced : Нет
Текст
Идентификатор : 3
Формат : UTF-8
Идентификатор кодека : S_TEXT/UTF8
Идентификатор кодека/Информация : UTF-8 Plain Text
Продолжительность : 1 ч. 28 м.
Битрейт : 0 бит/сек
Count of elements : 11
Размер потока : 196 байт (0%)
Заголовок : forced
Язык : Russian
Default : Да
Forced : Нет
Меню
00:00:00.000 : en:Chapter 1
00:05:22.822 : en:Chapter 2
00:09:30.361 : en:Chapter 3
00:11:55.673 : en:Chapter 4
00:16:27.152 : en:Chapter 5
00:18:56.802 : en:Chapter 6
00:24:13.827 : en:Chapter 7
00:26:07.357 : en:Chapter 8
00:32:09.344 : en:Chapter 9
00:36:52.126 : en:Chapter 10
00:41:43.125 : en:Chapter 11
00:44:13.942 : en:Chapter 12
00:50:08.463 : en:Chapter 13
00:55:04.009 : en:Chapter 14
01:00:28.625 : en:Chapter 15
01:05:12.199 : en:Chapter 16
01:10:02.948 : en:Chapter 17
01:14:18.495 : en:Chapter 18
01:20:20.440 : en:Chapter 19
01:22:46.461 : en:Chapter 20

Скриншоты

[Profile]  [PM] 
Display posts:    
Reply to topic

Current time is: 09-Aug 19:38

All times are UTC + 2



You cannot post new topics in this forum
You cannot reply to topics in this forum
You cannot edit your posts in this forum
You cannot delete your posts in this forum
You cannot vote in polls in this forum
You cannot attach files in this forum
You cannot download files in this forum