Уиджи: Доска Дьявола / Ouija (Стайлз Уайт / Stiles White) [2014, США, ужасы, триллер, BDRip-AVC] Dub + Sub (rus)

Reply to topic
 
Author
Message

Satyr ®

Gender: Unknown

Longevity: 11 years

Posts: 15401

Reputation: 55 [+] [-]

Satyr · Post 13-Feb-2017 01:15

[Quote] 

Уиджи: Доска Дьявола
Ouija
«Продолжай убеждать себя, что это всего лишь игра»

Страна: США
Жанр: ужасы, триллер
Год выпуска: 2014
Продолжительность: 01:29:23
Перевод: Профессиональный (полное дублирование) [Blu-ray CEE]
Субтитры: русские (форсированные)
Оригинальная аудиодорожка: нет
Режиссер: Стайлз Уайт / Stiles White
В ролях: Оливия Кук, Ана Кото, Дарен Кагасофф, Бьянка А. Сантос, Дуглас Смит, Шелли Хенниг, Сьерра Хойерманн, Санни Мэй Эллисон, Лин Шэй, Клаудия Кац, Вивис Кортес, Робин Лайвли
Описание:
Компания друзей вынуждена столкнуться с их самыми страшными кошмарами, после того, как пробуждает темные силы с помощью спиритической доски.


Автор рипа: stalkerok
Сэмпл
Качество видео: BDRip-AVC
Формат видео: MKV
Видео: 1789 Кбит/сек, 1152x480 (2.40:1), 23,976 кадр/сек, AVC
Аудио: русский, 448 Кбит/сек, 48 КГц, 16 бит, 5.1, AC3
Навигация по главам: есть

Исходник

OUIJA_UPB2_HDCLUB

x264/MediaInfo

x264 [info]: frame I:1053 Avg QP:15.65 size: 69703
x264 [info]: frame P:25830 Avg QP:17.17 size: 21366
x264 [info]: frame B:101708 Avg QP:19.97 size: 5934
Общее
Уникальный идентификатор : 189290811855182180618281627265201158854 (0x8E6815930AA58253BADD08EC1B493AC6)
Полное имя : M:\!!!!!!!!!!!!!!!!!!!\Ouija (2014)\Ouija.2014.BDRip-AVC.RUS.stalkerok.new-team.mkv
Формат : Matroska
Версия формата : Version 4 / Version 2
Размер файла : 1,43 Гбайт
Продолжительность : 1 ч. 29 м.
Общий поток : 2283 Кбит/сек
Название фильма : Ouija (2014) (Rip by stalkerok)
Дата кодирования : UTC 2017-02-10 20:34:16
Программа кодирования : mkvmerge v8.6.1 ('Flying') 64bit
Библиотека кодирования : libebml v1.3.3 + libmatroska v1.4.4
Видео
Идентификатор : 1
Формат : AVC
Формат/Информация : Advanced Video Codec
Профиль формата : High@L4.1
Параметр CABAC формата : Да
Параметр ReFrames формата : 12 кадров
Идентификатор кодека : V_MPEG4/ISO/AVC
Продолжительность : 1 ч. 29 м.
Битрейт : 1833 Кбит/сек
Ширина : 1152 пикселя
Высота : 480 пикселей
Соотношение сторон : 2,40:1
Режим частоты кадров : Постоянный
Частота кадров : 23,976 (24000/1001) кадра/сек
Цветовое пространство : YUV
Субдискретизация насыщенности : 4:2:0
Битовая глубина : 8 бит
Тип развёртки : Прогрессивная
Бит/(Пиксели*Кадры) : 0.138
Размер потока : 1,14 Гбайт (80%)
Заголовок : Ouija (2014) (Rip by stalkerok)
Библиотека кодирования : x264 core 148 r2705+54 9f484c1 t_mod_Custom [8-bit@all X86_64]
Настройки программы : cabac=1 / ref=12 / deblock=1:-3:-2 / analyse=0x3:0x133 / me=umh / subme=10 / psy=1 / fade_compensate=0.00 / psy_rd=1.00:0.00 / mixed_ref=1 / me_range=32 / chroma_me=1 / trellis=2 / 8x8dct=1 / cqm=0 / deadzone=21,11 / fast_pskip=0 / chroma_qp_offset=-2 / threads=12 / lookahead_threads=3 / sliced_threads=0 / nr=0 / decimate=1 / interlaced=0 / bluray_compat=0 / constrained_intra=0 / fgo=0 / bframes=14 / b_pyramid=2 / b_adapt=2 / b_bias=0 / direct=3 / weightb=1 / open_gop=0 / weightp=2 / keyint=240 / keyint_min=23 / scenecut=40 / intra_refresh=0 / rc_lookahead=60 / rc=crf / mbtree=0 / crf=19.2000 / qcomp=0.65 / qpmin=0:0:0 / qpmax=69:69:69 / qpstep=4 / vbv_maxrate=50000 / vbv_bufsize=62500 / crf_max=0.0 / nal_hrd=none / filler=0 / ip_ratio=1.40 / pb_ratio=1.30 / aq=3:0.90 / aq-sensitivity=10.00 / aq-factor=1.00:1.00:1.00 / aq2=0 / aq3=0
Default : Да
Forced : Нет
Аудио
Идентификатор : 2
Формат : AC-3
Формат/Информация : Audio Coding 3
Расширение режима : CM (complete main)
Параметр Endianness формата : Big
Идентификатор кодека : A_AC3
Продолжительность : 1 ч. 29 м.
Вид битрейта : Постоянный
Битрейт : 448 Кбит/сек
Каналы : 6 каналов
Расположение каналов : Front: L C R, Side: L R, LFE
Частота : 48,0 КГц
Частота кадров : 31,250 кадров/сек (1536 spf)
Метод сжатия : С потерями
Размер потока : 286 Мбайт (20%)
Язык : Russian
Default : Да
Forced : Нет
Текст
Идентификатор : 3
Формат : UTF-8
Идентификатор кодека : S_TEXT/UTF8
Идентификатор кодека/Информация : UTF-8 Plain Text
Продолжительность : 1 ч. 28 м.
Битрейт : 0 бит/сек
Count of elements : 11
Размер потока : 196 байт (0%)
Заголовок : forced
Язык : Russian
Default : Да
Forced : Нет
Меню
00:00:00.000 : en:Chapter 1
00:05:22.822 : en:Chapter 2
00:09:30.361 : en:Chapter 3
00:11:55.673 : en:Chapter 4
00:16:27.152 : en:Chapter 5
00:18:56.802 : en:Chapter 6
00:24:13.827 : en:Chapter 7
00:26:07.357 : en:Chapter 8
00:32:09.344 : en:Chapter 9
00:36:52.126 : en:Chapter 10
00:41:43.125 : en:Chapter 11
00:44:13.942 : en:Chapter 12
00:50:08.463 : en:Chapter 13
00:55:04.009 : en:Chapter 14
01:00:28.625 : en:Chapter 15
01:05:12.199 : en:Chapter 16
01:10:02.948 : en:Chapter 17
01:14:18.495 : en:Chapter 18
01:20:20.440 : en:Chapter 19
01:22:46.461 : en:Chapter 20

Скриншоты

[Profile]  [PM] 
Display posts:    
Reply to topic

Current time is: 05-Dec 01:53

All times are UTC + 2



You cannot post new topics in this forum
You cannot reply to topics in this forum
You cannot edit your posts in this forum
You cannot delete your posts in this forum
You cannot vote in polls in this forum
You cannot attach files in this forum
You cannot download files in this forum