Детка, детка, детка / Baby, Baby, Baby (Брайан Клагман / Brian Klugman) [2015, США, драма, мелодрама, комедия, WEB-DLRip] MVO

Reply to topic
 
Author
Message

Satyr ®

Gender: Unknown

Longevity: 10 years

Posts: 14602

Reputation: 54 [+] [-]

Satyr · Post 13-Feb-2017 01:15

[Quote] 

-Детка, детка, детка / Baby, Baby, Baby- -Страна: США
Жанр: драма, мелодрама, комедия
Год выпуска: 2015
Продолжительность: 01:26:29-Перевод: Профессиональный (многоголосый закадровый) iTunes
Cубтитры: нет
Оригинальная аудиодорожка: нет-Режиссер: Брайан Клагман / Brian Klugman-В ролях: Эдрианн Палики, Брайан Клагман, Микаэла Конлин, Келси Грэммер, Джеймс Родэй, Деннис Хейсбёрт, Клорис Личмен, Уильям Шетнер, Джонатан Силвермен, Келли МакКрири-Описание: История об отношениях между двумя не подходящими друг другу людьми, которые пытаются оставить прошлое в прошлом, чтобы дать шанс своей любви.- -Качество видео: WEB-DLRip-Релиз: MegaPeer-Формат видео: AVI-Видео: XviD build 73, 720x384 (1.85:1), 23.976 fps, ~2025 kbps avg, 0.305 bit/pixel
Аудио: 48 kHz, AC3 Dolby Digital, 3/2 (L,C,R,l,r) + LFE ch, ~384 kbps avg-

MediaInfo

Complete name : C:\Users\1\Desktop\Baby.Baby.Baby.2015.WEB-DLRip.1.46Gb.MegaPeer.avi
Format : AVI
Format/Info : Audio Video Interleave
File size : 1.46 GiB
Duration : 1h 26mn
Overall bit rate : 2 417 Kbps
Video
ID : 0
Format : MPEG-4 Visual
Format profile : Advanced Simple@L5
Format settings, BVOP : 1
Format settings, QPel : No
Format settings, GMC : No warppoints
Format settings, Matrix : Custom
Codec ID : XVID
Codec ID/Hint : XviD
Duration : 1h 26mn
Bit rate : 2 025 Kbps
Width : 720 pixels
Height : 384 pixels
Display aspect ratio : 1.85:1
Frame rate : 23.976 (24000/1001) fps
Color space : YUV
Chroma subsampling : 4:2:0
Bit depth : 8 bits
Scan type : Progressive
Compression mode : Lossy
Bits/(Pixel*Frame) : 0.305
Stream size : 1.22 GiB (84%)
Writing library : XviD 73
Audio
ID : 1
Format : AC-3
Format/Info : Audio Coding 3
Mode extension : CM (complete main)
Format settings, Endianness : Big
Codec ID : 2000
Duration : 1h 26mn
Bit rate mode : Constant
Bit rate : 384 Kbps
Channel(s) : 6 channels
Channel positions : Front: L C R, Side: L R, LFE
Sampling rate : 48.0 KHz
Frame rate : 31.250 fps (1536 spf)
Compression mode : Lossy
Stream size : 238 MiB (16%)
Alignment : Aligned on interleaves
Interleave, duration : 64 ms (1.53 video frames)
Interleave, preload duratio : 192 ms
Title : iTunes

Скриншот c названием фильма

Скриншоты

[Profile]  [PM] 
Display posts:    
Reply to topic

Current time is: 09-Dec 04:59

All times are UTC + 2



You cannot post new topics in this forum
You cannot reply to topics in this forum
You cannot edit your posts in this forum
You cannot delete your posts in this forum
You cannot vote in polls in this forum
You cannot attach files in this forum
You cannot download files in this forum