Уиджи. Проклятие доски дьявола / Ouija: Origin of Evil (Майк Флэнеган / Mike Flanagan) [2016, Япония, США, ужасы, триллер, BDRip-AVC] Dub + Sub (rus)

Reply to topic
 
Author
Message

Satyr ®

Gender: Unknown

Longevity: 10 years

Posts: 15328

Reputation: 54 [+] [-]

Satyr · Post 13-Feb-2017 01:15

[Quote] 

Уиджи. Проклятие доски дьявола
Ouija: Origin of Evil
«Вызывая духов, никогда не знаешь, кто явится на зов»

Страна: Япония, США
Жанр: ужасы, триллер
Год выпуска: 2016
Продолжительность: 01:38:54
Перевод: Профессиональный (полное дублирование) [Blu-ray CEE]
Cубтитры: русские (форсированные, полные)
Оригинальная аудиодорожка: нет
Режиссер: Майк Флэнеган / Mike Flanagan
В ролях: Анналиса Бассо, Элизабет Ризер, Лулу Уилсон, Генри Томас, Паркер Мак, Холли Чарлтон, Алексис Дж. Залл, Даг Джонс, Кейт Сигел, Сэм Андерсон, Челси Гонзалез, Линкольн Мелчер
Описание:
Спиритическая доска Уиджи никогда не была просто игрой. Она служила порталом в мир мертвых. Столетиями она служила вратами между миром живых и царством мертвых. Но однажды духи выйдут из-под контроля, и первородное зло овладеет душой ребенка...

Сэмпл
Качество видео: BDRip-AVC
Формат видео: MKV
Видео: 989 Кбит/сек, 788*426 (1,85:1), в 23,976 (24000/1001) кадра/сек, AVC
Аудио: русский, 64,0 Кбит/сек, 48,0 КГц / 24,0 КГц, 2 канала, AAC
Навигация по главам: есть

Исходник

Ouija.Origin.of.Evil.2016.1080p.CEE.Blu-ray.AVC.DTS-HD.MA.5.1-TTG

x264/MediaInfo

x264 [info]: frame I:1219 Avg QP:13.67 size: 50337
x264 [info]: frame P:25275 Avg QP:17.05 size: 13139
x264 [info]: frame B:115797 Avg QP:18.70 size: 2939
Общее
Уникальный идентификатор : 219182955552866039540702601032268030412 (0xA4E51A0B9F8AC4EBBDFC13DC3678A1CC)
Полное имя : M:\!!!!!!!!!!!!!!!!!!!\Ouija Origin of Evil (2016)\Ouija.Origin.of.Evil.2016.BDRip-AVC.RUS..stalkerok.new-team.mkv
Формат : Matroska
Версия формата : Version 4 / Version 2
Размер файла : 746 Мбайт
Продолжительность : 1 ч. 38 м.
Общий поток : 1055 Кбит/сек
Название фильма : Ouija: Origin of Evil (2016) (Rip by stalkerok)
Дата кодирования : UTC 2017-02-12 15:07:31
Программа кодирования : mkvmerge v8.6.1 ('Flying') 64bit
Библиотека кодирования : libebml v1.3.3 + libmatroska v1.4.4
Видео
Идентификатор : 1
Формат : AVC
Формат/Информация : Advanced Video Codec
Профиль формата : High@L4.1
Параметр CABAC формата : Да
Параметр ReFrames формата : 15 кадров
Идентификатор кодека : V_MPEG4/ISO/AVC
Продолжительность : 1 ч. 38 м.
Битрейт : 989 Кбит/сек
Ширина : 788 пикселей
Высота : 426 пикселей
Соотношение сторон : 1,85:1
Соотношение сторон в оригинале : 1,85:1
Режим частоты кадров : Постоянный
Частота кадров : 23,976 (24000/1001) кадра/сек
Цветовое пространство : YUV
Субдискретизация насыщенности : 4:2:0
Битовая глубина : 8 бит
Тип развёртки : Прогрессивная
Бит/(Пиксели*Кадры) : 0.123
Размер потока : 700 Мбайт (94%)
Заголовок : Ouija: Origin of Evil (2016) (Rip by stalkerok)
Библиотека кодирования : x264 core 148 r2705+54 9f484c1 t_mod_Custom [8-bit@all X86_64]
Настройки программы : cabac=1 / ref=15 / deblock=1:-3:-2 / analyse=0x3:0x133 / me=umh / subme=10 / psy=1 / fade_compensate=0.00 / psy_rd=1.00:0.00 / mixed_ref=1 / me_range=32 / chroma_me=1 / trellis=2 / 8x8dct=1 / cqm=0 / deadzone=21,11 / fast_pskip=0 / chroma_qp_offset=-2 / threads=12 / lookahead_threads=3 / sliced_threads=0 / nr=0 / decimate=0 / interlaced=0 / bluray_compat=0 / constrained_intra=0 / fgo=0 / bframes=15 / b_pyramid=2 / b_adapt=2 / b_bias=0 / direct=3 / weightb=1 / open_gop=0 / weightp=2 / keyint=240 / keyint_min=23 / scenecut=40 / intra_refresh=0 / rc_lookahead=60 / rc=2pass / mbtree=0 / bitrate=989 / ratetol=1.0 / qcomp=0.65 / qpmin=0:0:0 / qpmax=69:69:69 / qpstep=4 / cplxblur=20.0 / qblur=0.5 / vbv_maxrate=50000 / vbv_bufsize=62500 / nal_hrd=none / filler=0 / ip_ratio=1.40 / pb_ratio=1.30 / aq=3:0.95 / aq-sensitivity=10.00 / aq-factor=1.00:1.00:1.00 / aq2=0 / aq3=0
Default : Да
Forced : Нет
Аудио
Идентификатор : 2
Формат : AAC
Формат/Информация : Advanced Audio Codec
Профиль формата : HE-AAC / LC
Идентификатор кодека : A_AAC
Продолжительность : 1 ч. 38 м.
Битрейт : 64,0 Кбит/сек
Каналы : 2 канала
Расположение каналов : Front: L R
Частота : 48,0 КГц / 24,0 КГц
Частота кадров : 23,438 кадра/сек (1024 spf)
Метод сжатия : С потерями
Задержка видео : 31 мс.
Размер потока : 45,3 Мбайт (6%)
Язык : Russian
Default : Да
Forced : Нет
Текст #1
Идентификатор : 3
Формат : UTF-8
Идентификатор кодека : S_TEXT/UTF8
Идентификатор кодека/Информация : UTF-8 Plain Text
Продолжительность : 1 ч. 38 м.
Битрейт : 0 бит/сек
Count of elements : 42
Размер потока : 715 байт (0%)
Заголовок : Forced
Язык : Russian
Default : Да
Forced : Нет
Текст #2
Идентификатор : 4
Формат : UTF-8
Идентификатор кодека : S_TEXT/UTF8
Идентификатор кодека/Информация : UTF-8 Plain Text
Продолжительность : 1 ч. 38 м.
Битрейт : 55 бит/сек
Count of elements : 1044
Размер потока : 40,0 Кбайт (0%)
Заголовок : Blu-ray CEE
Язык : Russian
Default : Нет
Forced : Нет
Меню
00:00:00.000 : en:Chapter 1
00:05:30.747 : en:Chapter 2
00:09:12.468 : en:Chapter 3
00:14:19.525 : en:Chapter 4
00:21:37.879 : en:Chapter 5
00:25:24.314 : en:Chapter 6
00:30:09.849 : en:Chapter 7
00:35:53.317 : en:Chapter 8
00:39:04.383 : en:Chapter 9
00:43:53.464 : en:Chapter 10
00:48:49.676 : en:Chapter 11
00:55:11.683 : en:Chapter 12
00:58:47.607 : en:Chapter 13
01:05:27.715 : en:Chapter 14
01:10:46.283 : en:Chapter 15
01:14:26.420 : en:Chapter 16
01:18:25.075 : en:Chapter 17
01:21:48.403 : en:Chapter 18
01:27:42.840 : en:Chapter 19
01:31:03.291 : en:Chapter 20

Скриншоты

[Profile]  [PM] 
Display posts:    
Reply to topic

Current time is: 28-Jan 06:34

All times are UTC + 2



You cannot post new topics in this forum
You cannot reply to topics in this forum
You cannot edit your posts in this forum
You cannot delete your posts in this forum
You cannot vote in polls in this forum
You cannot attach files in this forum
You cannot download files in this forum