Выбор короля / The King\'s Choice / Kongens nei (Эрик Поппе / Erik Poppe) [2016, Норвегия, История, военный, драма, HDRip] VO + Sub Rus + Original Nor

Reply to topic
 
Author
Message

Satyr ®

Gender: Unknown

Longevity: 10 years

Posts: 14651

Reputation: 54 [+] [-]

Satyr · Post 13-Feb-2017 01:15

[Quote] 

Выбор короля / The King's Choice / Kongens nei
Страна: Норвегия
Жанр: История, военный, драма
Год выпуска: 2016
Продолжительность: 02:10:22
Перевод: Одноголосый закадровый (visanti-vasaer)
Cубтитры: русские \ английские
Оригинальная аудиодорожка: норвежский
Режиссер: Эрик Поппе / Erik Poppe
В ролях: Андерс Баасмо Кристиансен, Еспер Кристенсен, Карл Маркович, Свейн Тиндберг, Артур Хакалахти, Тува Новотны, Кэтиль Хеег
Описание: Реконструкция событий апреля 1940 года, когда Германия вторглась на территорию Норвегии и потребовала от норвежского правительства подписать акт о безоговорочной капитуляции. Правительство в панике подает в полном составе в отставку и перекладывает ответственность за принятие решения на формального главу государства — короля Хоконa VII
Доп. информация: Фильм выдвинут Норвегией на премию «Оскар» за лучший фильм на иностранном языке в 2017г.
Сэмпл: https://yadi.sk/i/uqWSeOzR3Dk8aY
Качество видео: HDRip (исходник: BDRip/1080p)
Формат видео: AVI
Видео: XviD, 720x304, 25 fps, 1904 kbps
Аудио: AC3 48,0 КГц, 2ch, 192 Кбит/сек
Аудио 2: AC3 48,0 КГц, 2ch, 192 Кбит/сек
Формат субтитров: softsub (SRT)

MediaInfo

Формат : AVI
Формат/Информация : Audio Video Interleave
Профиль формата : OpenDML
Настройки формата : rec
Размер файла : 2,09 Гбайт
Продолжительность : 2 ч. 10 м.
Общий поток : 2295 Кбит/сек
Программа кодирования : AVI-Mux GUI 1.17.8.3, Feb 16 201019:42:50
Видео
Идентификатор : 0
Формат : MPEG-4 Visual
Профиль формата : Advanced Simple@L5
Параметр BVOP формата : 1
Параметр QPel формата : Нет
Параметр GMC формата : Без точки перехода
Параметр матрицы формата : Default (MPEG)
Идентификатор кодека : DX50
Идентификатор кодека/Подсказка : DivX 5
Продолжительность : 2 ч. 10 м.
Битрейт : 1904 Кбит/сек
Ширина : 720 пикселей
Высота : 304 пикселя
Соотношение сторон : 2,35:1
Частота кадров : 25,000 кадров/сек
Цветовое пространство : YUV
Субдискретизация насыщенности : 4:2:0
Битовая глубина : 8 бит
Тип развёртки : Прогрессивная
Метод сжатия : С потерями
Бит/(Пиксели*Кадры) : 0.348
Размер потока : 1,73 Гбайт (83%)
Библиотека кодирования : XviD 1.2.1 (UTC 2008-12-04)
Аудио #1
Идентификатор : 1
Формат : AC-3
Формат/Информация : Audio Coding 3
Расширение режима : CM (complete main)
Параметр Endianness формата : Big
Идентификатор кодека : 2000
Продолжительность : 2 ч. 10 м.
Вид битрейта : Постоянный
Битрейт : 192 Кбит/сек
Каналы : 2 канала
Расположение каналов : Front: L R
Частота : 48,0 КГц
Частота кадров : 31,250 кадров/сек (1536 spf)
Битовая глубина : 16 бит
Метод сжатия : С потерями
Размер потока : 179 Мбайт (8%)
Выравнивание : Соединение по промежуткам
Продолжительность промежутка : 64 мс. (1,60 видеокадра)
Время предзагрузки промежутка : 192 мс.
Заголовок : Русский
Аудио #2
Идентификатор : 2
Формат : AC-3
Формат/Информация : Audio Coding 3
Расширение режима : CM (complete main)
Параметр Endianness формата : Big
Идентификатор кодека : 2000
Продолжительность : 2 ч. 10 м.
Вид битрейта : Постоянный
Битрейт : 192 Кбит/сек
Каналы : 2 канала
Расположение каналов : Front: L R
Частота : 48,0 КГц
Частота кадров : 31,250 кадров/сек (1536 spf)
Битовая глубина : 16 бит
Метод сжатия : С потерями
Размер потока : 179 Мбайт (8%)
Выравнивание : Соединение по промежуткам
Продолжительность промежутка : 64 мс. (1,60 видеокадра)
Время предзагрузки промежутка : 192 мс.
Заголовок : Норвежский

Скриншот c названием фильма

Скриншоты

[Profile]  [PM] 
Display posts:    
Reply to topic

Current time is: 15-Dec 13:34

All times are UTC + 2



You cannot post new topics in this forum
You cannot reply to topics in this forum
You cannot edit your posts in this forum
You cannot delete your posts in this forum
You cannot vote in polls in this forum
You cannot attach files in this forum
You cannot download files in this forum