Дом напротив / Сосед / The Neighbor (Маркус Данстэн / Marcus Dunstan) [2016, США, ужасы, триллер, криминал, HDRip] Dub

Reply to topic
 
Author
Message

Satyr ®

Gender: Unknown

Longevity: 10 years

Posts: 15328

Reputation: 54 [+] [-]

Satyr · Post 13-Feb-2017 01:15

[Quote] 

-Дом напротив / Сосед / The Neighbo
«А знаешь ли ты, кто твой сосед?»- -Страна: США
Жанр: ужасы, триллер, криминал
Год выпуска: 2016
Продолжительность: 01:26:53-Перевод: Профессиональный (дублированный) iTunes
Cубтитры: нет
Оригинальная аудиодорожка: нет-Режиссер: Маркус Данстэн / Marcus Dunstan-В ролях: Джош Стюарт, Александра Эссоу, Билл Ингвалл, Люк Эдвардс, Скипп Саддат, Жаклин Флеминг, Ронни Джин Блевинс, Дэвид Каллауэй, Хезер Уильямс-Описание: Джон - наркодилер. Он подчиняется своему дяде, кроме которого у Джона нет никого из родственников, и живёт за городом с женой Рози. Они задумали сбежать от грязного бизнеса после последней пары поставок, а пока Джон занят делами, Рози целыми днями сидит дома и наблюдает в телескоп за соседом. Тот занят, вроде бы, обычным для сельской местности делом - отстрелом кроликов, и однажды заявляется к парочке в гости.- - -Качество видео: HDRip / The Neighbor 2016 BluRay 1080p DTS-HD MA 5.1 x264 dxva-FraMeSToR
Формат видео: AVI-Видео: XviD build 73, 688x288 (2.40:1), 23.976 fps, ~1066 kbps avg, 0.224 bit/pixel
Аудио: 48 kHz, MP3, 2/0 (L,R) ch, ~128 kbps avg-

MediaInfo

Complete name : C:\Users\1\Desktop\Дом напротив (2016) HDRip_ivanes20031987.avi
Format : AVI
Format/Info : Audio Video Interleave
File size : 748 MiB
Duration : 1h 26mn
Overall bit rate : 1 203 Kbps
Writing application : VirtualDubMod 1.5.10.3 | www.virtualdub-fr.org || (build 2550/release)
Writing library : VirtualDubMod build 2550/release
Video
ID : 0
Format : MPEG-4 Visual
Format profile : Advanced Simple@L5
Format settings, BVOP : 1
Format settings, QPel : No
Format settings, GMC : No warppoints
Format settings, Matrix : Custom
Codec ID : XVID
Codec ID/Hint : XviD
Duration : 1h 26mn
Bit rate : 1 066 Kbps
Width : 688 pixels
Height : 288 pixels
Display aspect ratio : 2.40:1
Frame rate : 23.976 (24000/1001) fps
Color space : YUV
Chroma subsampling : 4:2:0
Bit depth : 8 bits
Scan type : Progressive
Compression mode : Lossy
Bits/(Pixel*Frame) : 0.224
Stream size : 662 MiB (89%)
Writing library : XviD 73
Audio
ID : 1
Format : MPEG Audio
Format version : Version 1
Format profile : Layer 3
Codec ID : 55
Codec ID/Hint : MP3
Duration : 1h 26mn
Bit rate mode : Constant
Bit rate : 128 Kbps
Channel(s) : 2 channels
Sampling rate : 48.0 KHz
Compression mode : Lossy
Stream size : 79.4 MiB (11%)
Alignment : Aligned on interleaves
Interleave, duration : 42 ms (1.00 video frame)
Interleave, preload duratio : 504 ms
Writing library : LAME3.99r
Encoding settings : -m s -V 4 -q 2 -lowpass 17 -b 128

Скриншот c названием фильма

Скриншоты

[Profile]  [PM] 
Display posts:    
Reply to topic

Current time is: 28-Jan 07:13

All times are UTC + 2



You cannot post new topics in this forum
You cannot reply to topics in this forum
You cannot edit your posts in this forum
You cannot delete your posts in this forum
You cannot vote in polls in this forum
You cannot attach files in this forum
You cannot download files in this forum