Ураган / F6: Twister / Christmas Twister (Питер Салливан / Peter Sullivan) [2012, США, Драма, экшн, SATRip] MVO

Reply to topic
 
Author
Message

Satyr ®

Gender: Unknown

Longevity: 10 years

Posts: 15328

Reputation: 54 [+] [-]

Satyr · Post 13-Feb-2017 17:35

[Quote] 

Ураган / F6: Twister / Christmas Twister
Страна: США
Жанр: Драма, экшн
Год выпуска: 2012
Продолжительность: 01:22:39
Перевод: Профессиональный (многоголосый закадровый)
Cубтитры: нет
Оригинальная аудиодорожка: нет
Режиссер: Питер Салливан / Peter Sullivan
В ролях: Каспер Ван Дин, Ричард Берджи, Виктория Прэтт, Хейли Лу Ричардсон, Дмитрий Шуйлер-Линч, Стивен Уильямс, Кристина ДеРоса, Майкл С. Махон, Скотт Томас Рейнольдс, Бен Жиру
Описание: В маленьком техасском городке метеоролог Этан Уокер изучает торнадо в местном университете. В последнее время здесь были зафиксированы самые сильные торнадо в мире. Накануне Рождества Этан вычисляет, что скоро город накроет целая серия очень сильных ураганов. Он хочет объявить об этом по телевидению, но ведущие новостей считают, что паниковать рано и не нужно портить людям праздничное настроение. Когда ураган сметает город с лица земли, Этан и его жена Эддисон пытаются выбраться живыми из этого ада и найти своих потерявшихся в общем хаосе детей.
Сэмпл: http://multi-up.com/1140220
Качество видео: SATRip
Формат видео: AVI
Видео: MPEG4, XviD, 704x400 (16:9), 25.000 fps, 2 170 Kbps (0.308 bit/pixel)
Аудио: AC-3, 48.0 KHz, 2 ch, 192 Kbps, CBR

MediaInfo

бщее
Полное имя : M:\Ураган.avi
Формат : AVI
Формат/Информация : Audio Video Interleave
Размер файла : 1,37 Гбайт
Продолжительность : 1 ч. 22 м.
Общий поток : 2372 Кбит/сек
Название фильма : Ураган / F6: Twister / Christmas Twister (2012)
Программа кодирования : VirtualDubMod 1.5.10.2 (build 2540/release)
Библиотека кодирования : VirtualDubMod build 2540/release
Авторское право : miha2154
Видео
Идентификатор : 0
Формат : MPEG-4 Visual
Профиль формата : Advanced Simple@L5
Параметр BVOP формата : 1
Параметр QPel формата : Нет
Параметр GMC формата : Без точки перехода
Параметр матрицы формата : Выборочная
Идентификатор кодека : XVID
Идентификатор кодека/Подсказка : XviD
Продолжительность : 1 ч. 22 м.
Битрейт : 2170 Кбит/сек
Ширина : 704 пикселя
Высота : 400 пикселей
Соотношение сторон : 16:9
Частота кадров : 25,000 кадров/сек
Цветовое пространство : YUV
Субдискретизация насыщенности : 4:2:0
Битовая глубина : 8 бит
Тип развёртки : Прогрессивная
Метод сжатия : С потерями
Бит/(Пиксели*Кадры) : 0.308
Размер потока : 1,25 Гбайт (91%)
Библиотека кодирования : XviD 65
Аудио
Идентификатор : 1
Формат : AC-3
Формат/Информация : Audio Coding 3
Расширение режима : CM (complete main)
Параметр Endianness формата : Big
Идентификатор кодека : 2000
Продолжительность : 1 ч. 22 м.
Вид битрейта : Постоянный
Битрейт : 192 Кбит/сек
Каналы : 2 канала
Расположение каналов : Front: L R
Частота : 48,0 КГц
Частота кадров : 31,250 кадров/сек (1536 spf)
Метод сжатия : С потерями
Размер потока : 114 Мбайт (8%)
Выравнивание : Разделение по промежуткам
Продолжительность промежутка : 40 мс. (1,00 видеокадр)
Время предзагрузки промежутка : 500 мс.
Заголовок : Профессиональный (многоголосый закадровый)

Скриншоты


[Profile]  [PM] 
Display posts:    
Reply to topic

Current time is: 28-Jan 07:12

All times are UTC + 2



You cannot post new topics in this forum
You cannot reply to topics in this forum
You cannot edit your posts in this forum
You cannot delete your posts in this forum
You cannot vote in polls in this forum
You cannot attach files in this forum
You cannot download files in this forum