Дни Искушения / Демон / Last Days in the Desert (Родриго Гарсия / Rodrigo Garcia) [2015, США, Драма, приключения, история, WEB-DLRip] Dub (Itunes)

Reply to topic
 
Author
Message

Satyr ®

Gender: Unknown

Longevity: 12 years

Posts: 18182

Reputation: 56 [+] [-]

Satyr · Post 13-Feb-2017 17:35

[Quote] 

Дни Искушения (Демон) / Last Days in the Desert
Страна: США
Жанр: Драма, приключения, история
Год выпуска: 2015
Продолжительность: 01:39:42.555
Перевод: Профессиональный (дублированный) Itunes
Cубтитры: нет
Режиссер: Родриго Гарсия / Rodrigo García
В ролях: Эван МакГрегор, Киаран Хайндс, Айелет Зурер, Тай Шеридан, Сьюзэн Грэй
Описание: Иисус держит путь через пустыню, проводя сорок дней за молитвой и постом. На своем пути он борется с Искусителем за судьбу простой семьи и проходит испытание земными страстями.
Сэмпл: http://multi-up.com/1140100
Качество видео: WEB-DLRip
Формат видео: AVI
Видео: 720x304 (2.37:1), 23.976 fps, XviD build 73 ~1703 kbps avg, 0.32 bit/pixel
Аудио: 48 kHz, AC3 Dolby Digital, 3/2 (L,C,R,l,r) + LFE ch, ~384 kbps - iTunes

MediaInfo

Формат : AVI
Формат/Информация : Audio Video Interleave
Размер файла : 1,46 Гбайт
Продолжительность : 1 ч. 39 м.
Общий поток : 2095 Кбит/сек
Видео
Идентификатор : 0
Формат : MPEG-4 Visual
Профиль формата : Advanced Simple@L5
Параметр BVOP формата : 1
Параметр QPel формата : Нет
Параметр GMC формата : Без точки перехода
Параметр матрицы формата : Выборочная
Идентификатор кодека : XVID
Идентификатор кодека/Подсказка : XviD
Продолжительность : 1 ч. 39 м.
Битрейт : 1704 Кбит/сек
Ширина : 720 пикселей
Высота : 304 пикселя
Соотношение сторон : 2,35:1
Частота кадров : 23,976 (24000/1001) кадра/сек
Цветовое пространство : YUV
Субдискретизация насыщенности : 4:2:0
Битовая глубина : 8 бит
Тип развёртки : Прогрессивная
Метод сжатия : С потерями
Бит/(Пиксели*Кадры) : 0.325
Размер потока : 1,19 Гбайт (81%)
Библиотека кодирования : XviD 73
Аудио
Идентификатор : 1
Формат : AC-3
Формат/Информация : Audio Coding 3
Расширение режима : CM (complete main)
Параметр Endianness формата : Big
Идентификатор кодека : 2000
Продолжительность : 1 ч. 39 м.
Вид битрейта : Постоянный
Битрейт : 384 Кбит/сек
Каналы : 6 каналов
Расположение каналов : Front: L C R, Side: L R, LFE
Частота : 48,0 КГц
Частота кадров : 31,250 кадров/сек (1536 spf)
Метод сжатия : С потерями
Размер потока : 274 Мбайт (18%)
Выравнивание : Соединение по промежуткам
Продолжительность промежутка : 64 мс. (1,54 видеокадра)
Время предзагрузки промежутка : 192 мс.
Заголовок : iTunes

Скриншоты

[Profile]  [PM] 
Display posts:    
Reply to topic

Current time is: 23-Sep 08:51

All times are UTC + 2



You cannot post new topics in this forum
You cannot reply to topics in this forum
You cannot edit your posts in this forum
You cannot delete your posts in this forum
You cannot vote in polls in this forum
You cannot attach files in this forum
You cannot download files in this forum