Не шутите с Зоханом / You Don\'t Mess with the Zohan (Дэннис Дуган / Dennis Dugan) [2008, США, комедия, BDRip] [Unrated] Dub

Reply to topic
 
Author
Message

Advocat ®

Gender: Unknown

Longevity: 11 years

Posts: 2910

Reputation: 0 [+] [-]

Advocat · Post 13-Feb-2017 17:35

[Quote] 

Не шутите с Зоханом / You Don't Mess with the Zohan / Unrated
Страна: США
Жанр: комедия
Год выпуска: 2008
Продолжительность: 01:56:53.513
Перевод: Профессиональный (дублированный) CEE
Cубтитры: нет
Режиссер: Дэннис Дуган / Dennis Dugan
В ролях: Адам Сэндлер, Джон Туртурро, Эммануэль Шрики, Ник Свардсон, Лэйни Кэзан, Идо Муссари, Роб Шнайдер, Дэйв Мэтьюз, Майкл Буффер, Шарлотта Рэй
Описание: Израильский боец Зохан Двир (Адам Сэнлер) – известнейший в своей стране борец с терроризмом. С одинаковой легкостью он поражает сердца женщин и уничтожает врагов. Однако у Зохана есть один секрет… он очень устал от бесконечной войны и мечтает о передышке, возможности проявить свои творческие способности, став парикмахером. Но пока Зохан борется с терроризмом, его мечте сбыться не суждено. Засыпая, он горько плачет над каталогом Поля Митчелла 1987 года, спрятанным в его спальне. Свой шанс осуществить мечту Зохан получает, когда на горизонте в очередной раз появляется суперзлодей Фантом. Вместо того, чтобы уничтожить террориста, Зохан инсценируют собственную смерть и сбегает со службы. Зайцем пробравшись на борт самолета до Нью-Йорка, Зохан, у которого нет ничего, кроме рюкзака с одеждой и безумной мечты, оказывается в грузовом отсеке вместе с двумя собаками – Скрэппи и Коко. По прибытии в Нью-Йорк Зохан первым делом отправляется в салон Поля Митчелла, скрываясь под новым именем Скрэппи Коко. Скрэппи надеется, что его тут же возьмут на работу, но встречает лишь насмешки над своей старомодностью. Несмотря ни на что, Зохан не оставляет попытки сделать мир шелковистым и блестящим.
Сэмпл: http://multi-up.com/1140251
Качество видео: BDRip (BD-Remux / HDCLUB)
Формат видео: AVI
Видео: 704x384 (1.83:1), 23.976 fps, XviD build 73 ~1392 kbps avg, 0.22 bit/pixel
Аудио: 48 kHz, AC3 Dolby Digital, 3/2 (L,C,R,l,r) + LFE ch, ~384 kbps

MediaInfo

Формат : AVI
Формат/Информация : Audio Video Interleave
Размер файла : 1,46 Гбайт
Продолжительность : 1 ч. 56 м.
Общий поток : 1786 Кбит/сек
Программа кодирования : VirtualDubMod 1.5.10.3 | www.virtualdub-fr.org || (build 2550/release)
Библиотека кодирования : VirtualDubMod build 2550/release
Видео
Идентификатор : 0
Формат : MPEG-4 Visual
Профиль формата : Advanced Simple@L5
Параметр BVOP формата : 1
Параметр QPel формата : Нет
Параметр GMC формата : Без точки перехода
Параметр матрицы формата : Выборочная
Идентификатор кодека : XVID
Идентификатор кодека/Подсказка : XviD
Продолжительность : 1 ч. 56 м.
Битрейт : 1393 Кбит/сек
Ширина : 704 пикселя
Высота : 384 пикселя
Соотношение сторон : 1,85:1
Частота кадров : 23,976 (23976/1000) кадра/сек
Цветовое пространство : YUV
Субдискретизация насыщенности : 4:2:0
Битовая глубина : 8 бит
Тип развёртки : Прогрессивная
Метод сжатия : С потерями
Бит/(Пиксели*Кадры) : 0.215
Размер потока : 1,14 Гбайт (78%)
Библиотека кодирования : XviD 73
Аудио
Идентификатор : 1
Формат : AC-3
Формат/Информация : Audio Coding 3
Расширение режима : CM (complete main)
Параметр Endianness формата : Big
Идентификатор кодека : 2000
Продолжительность : 1 ч. 56 м.
Вид битрейта : Постоянный
Битрейт : 384 Кбит/сек
Каналы : 6 каналов
Расположение каналов : Front: L C R, Side: L R, LFE
Частота : 48,0 КГц
Частота кадров : 31,250 кадров/сек (1536 spf)
Метод сжатия : С потерями
Размер потока : 321 Мбайт (21%)
Выравнивание : Разделение по промежуткам
Продолжительность промежутка : 42 мс. (1,00 видеокадр)
Время предзагрузки промежутка : 500 мс.

Скриншоты

http://torrentsland.com.ua/forum/viewtopic.php?t=3764678 http://screenshotcomparison.com/comparison/200264/picture:0
[Profile]  [PM] 
Display posts:    
Reply to topic

Current time is: 01-Dec 03:52

All times are UTC + 2



You cannot post new topics in this forum
You cannot reply to topics in this forum
You cannot edit your posts in this forum
You cannot delete your posts in this forum
You cannot vote in polls in this forum
You cannot attach files in this forum
You cannot download files in this forum