Птица / Bird (Клинт Иствуд / Clint Eastwood) [1988, США, драма, биография, музыка, WEB-DL 1080p] MVO (iTunes) + MVO (Варус Видео) + Sub Rus, Ukr, Eng + Original Eng

Reply to topic
 
Author
Message

Faust ®

Gender: Unknown

Longevity: 9 years 9 months

Posts: 15495

Reputation: 0 [+] [-]

Faust · Post 13-Feb-2017 17:35

[Quote] 

Птица / Bird
Страна: США
Студия: Malpaso Company, The, Warner Bros.
Жанр: драма, биография, музыка
Год выпуска: 1988
Продолжительность: 02:40:38
Перевод 1: Профессиональный (многоголосый закадровый) iTunes
Перевод 2: Профессиональный (многоголосый закадровый) Варус Видео
Cубтитры: русские (надписи, iTunes), русские (полные, iTunes), русские (полные, Петр Чайников), украинские (полные, iTunes), английские (полные, SDH)
Оригинальная аудиодорожка: английский
Режиссер: Клинт Иствуд / Clint Eastwood
В ролях: Форест Уитакер, Дайан Венора, Майкл Зелникер, Сэмюэл Э. Райт, Кит Дэвид, Майкл МакГуайр, Джеймс Хэнди, Дэймон Уитакер, Морган Наглер, Арлен Дин Снайдер
Описание: Родившийся в Канзас-сити в 1920 году, Чарли Паркер умер в 1955 году. Чрезмерное увлечение спиртным, наркотиками, едой и сексом привели к преждевременной смерти одного из гениев джаза. «Птица» (так прозвали Паркера за любовь к жареным цыплятам) — это импрессионистическое исследование жизни и музыки легендарного саксофониста.- by spartanec163-Сэмпл: https://yadi.sk/i/slP6E67R3Dtbq4
Тип релиза: WEB-DL 1080p
Контейнер: MKV
Видео: h.264, 1920x1080, 23.976 fps, 11900 kbps
Аудио #1: Russian: AAC 2.0, 48 kHz, 126 kbps avg |Многоголосый закадровый, iTunes|
Аудио #2: Russian: AC3 2.0, 48 kHz, 192 kbps avg |Многоголосый закадровый, Варус Видео|
Аудио #3: English: AC3 5.1, 48 kHz, 384 kbps avg |Оригинал|
Формат субтитров: softsub (SRT)

MediaInfo

Полное имя : E:\Bird.1988.1080p.WEB-DL.2xRus.Eng.HDCLUB.mkv
Формат : Matroska
Версия формата : Version 4 / Version 2
Размер файла : 14,1 Гбайт
Продолжительность : 2 ч. 40 м.
Режим общего битрейта : Переменный
Общий поток : 12,6 Мбит/сек
Название фильма : Release by spartanec163
Дата кодирования : UTC 2017-01-24 17:55:06
Программа кодирования : mkvmerge v8.3.0 ('Over the Horizon') 64bit
Библиотека кодирования : libebml v1.3.1 + libmatroska v1.4.2
Видео
Идентификатор : 1
Формат : AVC
Формат/Информация : Advanced Video Codec
Профиль формата : High@L4
Параметр CABAC формата : Да
Параметр ReFrames формата : 4 кадра
Идентификатор кодека : V_MPEG4/ISO/AVC
Продолжительность : 2 ч. 40 м.
Вид битрейта : Переменный
Битрейт : 11,9 Мбит/сек
Максимальный битрейт : 15,0 Мбит/сек
Ширина : 1920 пикселей
Высота : 1080 пикселей
Соотношение сторон : 16:9
Режим частоты кадров : Постоянный
Частота кадров : 23,976 (24000/1001) кадра/сек
Цветовое пространство : YUV
Субдискретизация насыщенности : 4:2:0
Битовая глубина : 8 бит
Тип развёртки : Прогрессивная
Бит/(Пиксели*Кадры) : 0.239
Размер потока : 13,3 Гбайт (94%)
Заголовок : WEB-DL 1080 (Amazon Video)
Библиотека кодирования : x264 core 148 r2623 d5b2374
Настройки программы : cabac=1 / ref=4 / deblock=1:-1:-1 / analyse=0x3:0x133 / me=umh / subme=9 / psy=1 / psy_rd=1.00:0.15 / mixed_ref=1 / me_range=24 / chroma_me=1 / trellis=2 / 8x8dct=1 / cqm=0 / deadzone=21,11 / fast_pskip=1 / chroma_qp_offset=-3 / threads=34 / lookahead_threads=5 / sliced_threads=0 / nr=150 / decimate=1 / interlaced=0 / bluray_compat=0 / constrained_intra=0 / bframes=8 / b_pyramid=2 / b_adapt=2 / b_bias=0 / direct=3 / weightb=1 / open_gop=0 / weightp=2 / keyint=120 / keyint_min=61 / scenecut=0 / intra_refresh=0 / rc_lookahead=120 / rc=crf / mbtree=1 / crf=18.0 / qcomp=0.60 / qpmin=0 / qpmax=69 / qpstep=4 / vbv_maxrate=15000 / vbv_bufsize=31250 / crf_max=0.0 / nal_hrd=vbr / filler=0 / ip_ratio=1.40 / aq=3:1.00
Язык : English
Default : Да
Forced : Нет
Цветовой диапазон : Limited
Основные цвета : BT.709
Характеристики трансфера : BT.709
Коэффициенты матрицы : BT.709
Аудио #1
Идентификатор : 2
Формат : AAC
Формат/Информация : Advanced Audio Codec
Профиль формата : LC
Идентификатор кодека : A_AAC
Продолжительность : 2 ч. 40 м.
Битрейт : 126 Кбит/сек
Каналы : 2 канала
Расположение каналов : Front: L R
Частота : 48,0 КГц
Частота кадров : 46,875 кадров/сек (1024 spf)
Метод сжатия : С потерями
Размер потока : 144 Мбайт (1%)
Заголовок : AAC 2.0 128Kbps (Профессиональный, многоголосый - iTunes Russia)
Язык : Russian
Default : Да
Forced : Нет
Аудио #2
Идентификатор : 3
Формат : AC-3
Формат/Информация : Audio Coding 3
Расширение режима : CM (complete main)
Параметр Endianness формата : Big
Идентификатор кодека : A_AC3
Продолжительность : 2 ч. 40 м.
Вид битрейта : Постоянный
Битрейт : 192 Кбит/сек
Каналы : 2 канала
Расположение каналов : Front: L R
Частота : 48,0 КГц
Частота кадров : 31,250 кадров/сек (1536 spf)
Битовая глубина : 16 бит
Метод сжатия : С потерями
Размер потока : 221 Мбайт (2%)
Заголовок : AC3 2.0 192Kbps (Профессиональный, многоголосый - Варус Видео, с VHS)
Язык : Russian
Default : Нет
Forced : Нет
Аудио #3
Идентификатор : 4
Формат : AC-3
Формат/Информация : Audio Coding 3
Расширение режима : CM (complete main)
Параметр Endianness формата : Big
Идентификатор кодека : A_AC3
Продолжительность : 2 ч. 40 м.
Вид битрейта : Постоянный
Битрейт : 384 Кбит/сек
Каналы : 6 каналов
Расположение каналов : Front: L C R, Side: L R, LFE
Частота : 48,0 КГц
Частота кадров : 31,250 кадров/сек (1536 spf)
Битовая глубина : 16 бит
Метод сжатия : С потерями
Размер потока : 441 Мбайт (3%)
Заголовок : AC3 5.1 384Kbps (Оригинал, iTunes)
Язык : English
Default : Нет
Forced : Нет
Текст #1
Идентификатор : 5
Формат : UTF-8
Идентификатор кодека : S_TEXT/UTF8
Идентификатор кодека/Информация : UTF-8 Plain Text
Продолжительность : 2 ч. 35 м.
Битрейт : 1 бит/сек
Count of elements : 30
Размер потока : 1,86 Кбайт (0%)
Заголовок : Надписи, iTunes
Язык : Russian
Default : Да
Forced : Нет
Текст #2
Идентификатор : 6
Формат : UTF-8
Идентификатор кодека : S_TEXT/UTF8
Идентификатор кодека/Информация : UTF-8 Plain Text
Продолжительность : 2 ч. 35 м.
Битрейт : 70 бит/сек
Count of elements : 1546
Размер потока : 80,2 Кбайт (0%)
Заголовок : Полные, iTunes
Язык : Russian
Default : Нет
Forced : Нет
Текст #3
Идентификатор : 7
Формат : UTF-8
Идентификатор кодека : S_TEXT/UTF8
Идентификатор кодека/Информация : UTF-8 Plain Text
Продолжительность : 2 ч. 36 м.
Битрейт : 72 бит/сек
Count of elements : 1521
Размер потока : 83,8 Кбайт (0%)
Заголовок : Полные, Петр Чайников
Язык : Russian
Default : Нет
Forced : Нет
Текст #4
Идентификатор : 8
Формат : UTF-8
Идентификатор кодека : S_TEXT/UTF8
Идентификатор кодека/Информация : UTF-8 Plain Text
Продолжительность : 2 ч. 35 м.
Битрейт : 72 бит/сек
Count of elements : 1557
Размер потока : 83,2 Кбайт (0%)
Заголовок : Полные, iTunes
Язык : Ukrainian
Default : Нет
Forced : Нет
Текст #5
Идентификатор : 9
Формат : UTF-8
Идентификатор кодека : S_TEXT/UTF8
Идентификатор кодека/Информация : UTF-8 Plain Text
Продолжительность : 2 ч. 37 м.
Битрейт : 45 бит/сек
Count of elements : 2171
Размер потока : 52,8 Кбайт (0%)
Заголовок : Полные, SDH, Amazon
Язык : English
Default : Нет
Forced : Нет
Меню
00:00:00.000 : en:Chapter 1
00:01:59.619 : en:Chapter 2
00:04:11.751 : en:Chapter 3
00:09:18.516 : en:Chapter 4
00:11:15.883 : en:Chapter 5
00:14:19.316 : en:Chapter 6
00:17:53.196 : en:Chapter 7
00:20:11.918 : en:Chapter 8
00:22:40.358 : en:Chapter 9
00:26:40.765 : en:Chapter 10
00:29:40.110 : en:Chapter 11
00:32:57.682 : en:Chapter 12
00:37:02.218 : en:Chapter 13
00:42:14.280 : en:Chapter 14
00:45:55.375 : en:Chapter 15
00:48:17.476 : en:Chapter 16
00:52:02.575 : en:Chapter 17
00:53:03.428 : en:Chapter 18
00:58:01.934 : en:Chapter 19
01:00:26.537 : en:Chapter 20
01:02:38.043 : en:Chapter 21
01:06:28.857 : en:Chapter 22
01:11:06.342 : en:Chapter 23
01:13:20.476 : en:Chapter 24
01:16:33.001 : en:Chapter 25
01:19:31.096 : en:Chapter 26
01:23:20.450 : en:Chapter 27
01:29:06.045 : en:Chapter 28
01:35:24.047 : en:Chapter 29
01:40:07.372 : en:Chapter 30
01:42:55.665 : en:Chapter 31
01:46:35.050 : en:Chapter 32
01:50:16.229 : en:Chapter 33
01:53:37.639 : en:Chapter 34
01:56:18.174 : en:Chapter 35
01:58:43.913 : en:Chapter 36
02:00:34.722 : en:Chapter 37
02:03:20.053 : en:Chapter 38
02:09:05.106 : en:Chapter 39
02:13:34.709 : en:Chapter 40
02:17:01.206 : en:Chapter 41
02:21:09.162 : en:Chapter 42
02:24:11.219 : en:Chapter 43
02:27:38.968 : en:Chapter 44
02:30:24.133 : en:Chapter 45
02:33:31.737 : en:Chapter 46
02:34:48.772 : en:Chapter 47

Скриншоты

[Profile]  [PM] 
Display posts:    
Reply to topic

Current time is: 23-Jun 07:11

All times are UTC + 2



You cannot post new topics in this forum
You cannot reply to topics in this forum
You cannot edit your posts in this forum
You cannot delete your posts in this forum
You cannot vote in polls in this forum
You cannot attach files in this forum
You cannot download files in this forum