Собственность дьявола / The Devil\'s Own (Алан Дж. Пакула / Alan J. Pakula) [1997, США, Ирландия, боевик, триллер, драма, BDRip 720p] Dub + 3x MVO + 2x AVO + Sub Rus, Eng + Original Eng

Reply to topic
 
Author
Message

Faust ®

Gender: Unknown

Longevity: 9 years 9 months

Posts: 15476

Reputation: 0 [+] [-]

Faust · Post 13-Feb-2017 17:35

[Quote] 

Собственность дьявола / The Devil's Own
Страна: США, Ирландия
Жанр: боевик, триллер, драма
Год выпуска: 1997
Продолжительность: 01:51:16
    -Перевод 1: Профессиональный (дублированный) BD CEE
    Перевод 2: Профессиональный (многоголосый закадровый) Видеосервис
    Перевод 3: Профессиональный (многоголосый закадровый) ОРТ
    Перевод 4: Профессиональный (многоголосый закадровый)
    Перевод 5: Авторский (одноголосый закадровый) Ю.Живов
    Перевод 6: Авторский (одноголосый закадровый) А.Кашкин
      -Cубтитры: русские, английскиe
      Оригинальная аудиодорожка: английский
        -Режиссер: Алан Дж. Пакула / Alan J. Pakula
          -В ролях: Харрисон Форд, Брэд Питт, Маргарет Колин, Рубен Бладес, Трит Уильямс, Джордж Хирн, Митчелл Райан, Наташа МакЭлхоун, Пол Ронан, Саймон Джонс
          Описание: Фрэнки Макгуайр — самый опасный террорист Ирландской Республиканской Армии. Прибыв в Америку с миссией покупки оружия, он находит приют в доме Тома О’Миры, нью-йоркского полицейского, который не знает ничего о личности и реальной жизни своего гостя. Все открывается, когда семья Тома сталкивается с террористами по вине Фрэнки. Принципы полицейского и юного мстителя сталкиваются. Борьба между главными героями приводит к неожиданной развязке.
            -Рип от CRiSC!
              -Тип релиза: BDRip 720p
              Контейнер: MKV
                -Видео: 1280x534 (2,40:1), 23,976 fps, AVC MPEG-4 (x264), High@L4.1 ~ 9000 Кбит/сек
                Аудио 1: Russian: 48 kHz/16-bit, AC3, 3/2 (L,C,R,l,r) + LFE ch, ~640.00 kbps avg | BD CEE
                Аудио 2: Russian: 48 kHz/16-bit, DTS, 3/2 (L,C,R,l,r) + LFE ch, ~1509.00 kbps avg | Видеосервис
                Аудио 3: Russian: 48 kHz/16-bit, AC3, 2/0 (L,R), ~192.00 kbps avg | ОРТ
                Аудио 4: Russian: 48 kHz/16-bit, AC3, 2/0 (L,R), ~192.00 kbps avg | MVO
                Аудио 5: Russian: 48 kHz/16-bit, DTS, 3/2 (L,C,R,l,r) + LFE ch, ~1509.00 kbps avg | Ю.Живов
                Аудио 6: Russian: 48 kHz/16-bit, DTS, 3/2 (L,C,R,l,r) + LFE ch, ~1509.00 kbps avg | А.Кашкин
                Аудио 7: English: 48 kHz/16-bit, DTS, 3/2 (L,C,R,l,r) + LFE ch, ~1510.00 kbps avg

                Дополнительно

                Релиз HDCLUB.
                Сохранены оригинальные главы как на Blu-ray.
                Дорожки №2,5,6 были получены путем наложения чистых голосов на центральный канал оригинала.
                Перевод (чистый голос) "Видеосервиса" выкуплен в рамках сервиса "Озвучивание".

                MediaInfo

                Общее
                Уникальный идентификатор : 228494783654502845286035148396277114131 (0xABE67E9DF39732F48E840EB4B85DA513)
                Полное имя : D:\The.Devil's.Own.BDRip.720p.mkv
                Формат : Matroska
                Версия формата : Version 2
                Размер файла : 12,5 Гбайт
                Продолжительность : 1 ч. 51 м.
                Общий поток : 16,1 Мбит/сек
                Дата кодирования : UTC 2017-02-11 19:03:56
                Программа кодирования : mkvmerge v5.6.0 ('Kenya Kane') built on May 27 2012 16:44:04
                Библиотека кодирования : libebml v1.2.3 + libmatroska v1.3.0
                Обложка : Yes
                Видео
                Идентификатор : 1
                Формат : AVC
                Формат/Информация : Advanced Video Codec
                Профиль формата : High@L4.1
                Параметр CABAC формата : Да
                Параметр ReFrames формата : 12 кадров
                Идентификатор кодека : V_MPEG4/ISO/AVC
                Продолжительность : 1 ч. 51 м.
                Битрейт : 9000 Кбит/сек
                Ширина : 1280 пикселей
                Высота : 534 пикселя
                Соотношение сторон : 2,40:1
                Режим частоты кадров : Постоянный
                Частота кадров : 23,976 кадра/сек
                Цветовое пространство : YUV
                Субдискретизация насыщенности : 4:2:0
                Битовая глубина : 8 бит
                Тип развёртки : Прогрессивная
                Бит/(Пиксели*Кадры) : 0.549
                Размер потока : 6,74 Гбайт (54%)
                Библиотека кодирования : x264 core 142 r2431 ac76440
                Настройки программы : cabac=1 / ref=12 / deblock=1:-3:-3 / analyse=0x3:0x133 / me=tesa / subme=10 / psy=1 / psy_rd=1.05:0.00 / mixed_ref=1 / me_range=24 / chroma_me=1 / trellis=2 / 8x8dct=1 / cqm=0 / deadzone=21,11 / fast_pskip=1 / chroma_qp_offset=-2 / threads=12 / lookahead_threads=2 / sliced_threads=0 / nr=0 / decimate=1 / interlaced=0 / bluray_compat=0 / constrained_intra=0 / bframes=9 / b_pyramid=2 / b_adapt=2 / b_bias=0 / direct=3 / weightb=1 / open_gop=0 / weightp=2 / keyint=240 / keyint_min=22 / scenecut=40 / intra_refresh=0 / rc_lookahead=40 / rc=2pass / mbtree=0 / bitrate=9000 / ratetol=1.0 / qcomp=0.60 / qpmin=0 / qpmax=69 / qpstep=4 / cplxblur=20.0 / qblur=0.5 / vbv_maxrate=62500 / vbv_bufsize=78125 / nal_hrd=none / filler=0 / ip_ratio=1.30 / pb_ratio=1.20 / aq=1:1.00
                Язык : English
                Default : Да
                Forced : Нет
                Аудио #1
                Идентификатор : 2
                Формат : AC-3
                Формат/Информация : Audio Coding 3
                Расширение режима : CM (complete main)
                Параметр Endianness формата : Big
                Режим смешивания : Header stripping
                Идентификатор кодека : A_AC3
                Продолжительность : 1 ч. 51 м.
                Вид битрейта : Постоянный
                Битрейт : 640 Кбит/сек
                Каналы : 6 каналов
                Расположение каналов : Front: L C R, Side: L R, LFE
                Частота : 48,0 КГц
                Битовая глубина : 16 бит
                Метод сжатия : С потерями
                Размер потока : 509 Мбайт (4%)
                Заголовок : BD CEE
                Язык : Russian
                Default : Да
                Forced : Нет
                Аудио #2
                Идентификатор : 3
                Формат : DTS
                Формат/Информация : Digital Theater Systems
                Режим : 16
                Параметр Endianness формата : Big
                Режим смешивания : Header stripping
                Идентификатор кодека : A_DTS
                Продолжительность : 1 ч. 51 м.
                Вид битрейта : Постоянный
                Битрейт : 1509 Кбит/сек
                Каналы : 6 каналов
                Расположение каналов : Front: L C R, Side: L R, LFE
                Частота : 48,0 КГц
                Битовая глубина : 16 бит
                Метод сжатия : С потерями
                Размер потока : 1,17 Гбайт (9%)
                Заголовок : Видеосервис
                Язык : Russian
                Default : Нет
                Forced : Нет
                Аудио #3
                Идентификатор : 4
                Формат : AC-3
                Формат/Информация : Audio Coding 3
                Расширение режима : CM (complete main)
                Параметр Endianness формата : Big
                Режим смешивания : Header stripping
                Идентификатор кодека : A_AC3
                Продолжительность : 1 ч. 51 м.
                Вид битрейта : Постоянный
                Битрейт : 192 Кбит/сек
                Каналы : 2 канала
                Расположение каналов : Front: L R
                Частота : 48,0 КГц
                Битовая глубина : 16 бит
                Метод сжатия : С потерями
                Размер потока : 153 Мбайт (1%)
                Заголовок : ОРТ
                Язык : Russian
                Default : Нет
                Forced : Нет
                Аудио #4
                Идентификатор : 5
                Формат : AC-3
                Формат/Информация : Audio Coding 3
                Расширение режима : CM (complete main)
                Параметр Endianness формата : Big
                Режим смешивания : Header stripping
                Идентификатор кодека : A_AC3
                Продолжительность : 1 ч. 51 м.
                Вид битрейта : Постоянный
                Битрейт : 192 Кбит/сек
                Каналы : 2 канала
                Расположение каналов : Front: L R
                Частота : 48,0 КГц
                Битовая глубина : 16 бит
                Метод сжатия : С потерями
                Размер потока : 153 Мбайт (1%)
                Заголовок : MVO
                Язык : Russian
                Default : Нет
                Forced : Нет
                Аудио #5
                Идентификатор : 6
                Формат : DTS
                Формат/Информация : Digital Theater Systems
                Режим : 16
                Параметр Endianness формата : Big
                Режим смешивания : Header stripping
                Идентификатор кодека : A_DTS
                Продолжительность : 1 ч. 51 м.
                Вид битрейта : Постоянный
                Битрейт : 1509 Кбит/сек
                Каналы : 6 каналов
                Расположение каналов : Front: L C R, Side: L R, LFE
                Частота : 48,0 КГц
                Битовая глубина : 16 бит
                Метод сжатия : С потерями
                Размер потока : 1,17 Гбайт (9%)
                Заголовок : Ю.Живов
                Язык : Russian
                Default : Нет
                Forced : Нет
                Аудио #6
                Идентификатор : 7
                Формат : DTS
                Формат/Информация : Digital Theater Systems
                Режим : 16
                Параметр Endianness формата : Big
                Режим смешивания : Header stripping
                Идентификатор кодека : A_DTS
                Продолжительность : 1 ч. 51 м.
                Вид битрейта : Постоянный
                Битрейт : 1509 Кбит/сек
                Каналы : 6 каналов
                Расположение каналов : Front: L C R, Side: L R, LFE
                Частота : 48,0 КГц
                Битовая глубина : 16 бит
                Метод сжатия : С потерями
                Размер потока : 1,17 Гбайт (9%)
                Заголовок : А.Кашкин
                Язык : Russian
                Default : Нет
                Forced : Нет
                Аудио #7
                Идентификатор : 8
                Формат : DTS
                Формат/Информация : Digital Theater Systems
                Режим : 16
                Параметр Endianness формата : Big
                Режим смешивания : Header stripping
                Идентификатор кодека : A_DTS
                Продолжительность : 1 ч. 51 м.
                Вид битрейта : Постоянный
                Битрейт : 1510 Кбит/сек
                Каналы : 6 каналов
                Расположение каналов : Front: L C R, Side: L R, LFE
                Частота : 48,0 КГц
                Битовая глубина : 16 бит
                Метод сжатия : С потерями
                Размер потока : 1,17 Гбайт (9%)
                Заголовок : English
                Язык : English
                Default : Нет
                Forced : Нет
                Текст #1
                Идентификатор : 9
                Формат : UTF-8
                Идентификатор кодека : S_TEXT/UTF8
                Идентификатор кодека/Информация : UTF-8 Plain Text
                Заголовок : Russian
                Язык : Russian
                Default : Нет
                Forced : Нет
                Текст #2
                Идентификатор : 10
                Формат : UTF-8
                Идентификатор кодека : S_TEXT/UTF8
                Идентификатор кодека/Информация : UTF-8 Plain Text
                Заголовок : English
                Язык : English
                Default : Нет
                Forced : Нет
                Меню
                00:00:00.000 : :Start
                00:13:56.710 : :Belfast
                00:21:07.599 : :Newark Airport
                00:27:06.708 : :The O'Mearas
                00:33:43.896 : :Family Dinner
                00:38:34.520 : :Back To Work
                00:45:38.068 : :In Pursuit
                00:54:39.025 : :Pot-Bellied Pigs
                01:00:06.936 : :Billy Burke
                01:06:36.325 : :Shooting Pool
                01:13:27.653 : :Working On Voyager
                01:18:18.151 : :Megan Doherty
                01:25:13.983 : :Bag Full Of Cash
                01:33:18.843 : :Morgan's Confirmation
                01:38:05.129 : :A Message
                01:41:56.360 : :No Deposit, No Return

                Скриншоты


                [Profile]  [PM] 
                Display posts:    
                Reply to topic

                Current time is: 21-Jun 17:46

                All times are UTC + 2



                You cannot post new topics in this forum
                You cannot reply to topics in this forum
                You cannot edit your posts in this forum
                You cannot delete your posts in this forum
                You cannot vote in polls in this forum
                You cannot attach files in this forum
                You cannot download files in this forum