Пленник / Captive (Джерри Джеймсон / Jerry Jameson) [2015, США, триллер, драма, криминал, BDRip 1080p] Dub (iTunes) + Sub Rus, Eng + Original Eng

Reply to topic
 
Author
Message

Faust ®

Gender: Unknown

Longevity: 10 years

Posts: 16172

Reputation: 0 [+] [-]

Faust · Post 13-Feb-2017 17:35

[Quote] 

Пленник / Captive
Страна: США
Студия: BN Films, 1019 Entertainment, Brightside Entertainment
Жанр: триллер, драма, криминал
Год выпуска: 2015
Продолжительность: 01:37:08
Перевод: Профессиональный (дублированный) iTunes
Cубтитры: Rus, Eng
Оригинальная аудиодорожка: английский
Режиссер: Джерри Джеймсон / Jerry Jameson
В ролях: Кейт Мара, Мими Роджерс, Майкл Кеннет Уильямс, Дэвид Ойелоуо, Леонор Варела, Мэтт Лоу, Джессика Ойелоуо, Э. Роджер Митчелл, Рэймонд Скотт Паркс, Дж. Карен Томас, Майкл Меркальди, Леон Приджен
Описание: Мать-одиночка, борющаяся с наркотической зависимостью, взята в заложники в собственной квартире, мужчиной, который сбежал из тюрьмы и убил судью, назначенного на его дело.

Тип релиза: BDRip 1080p
Контейнер: MKV
Видео: MPEG-4 AVC, 17.8 Mбит/с, 1920x1080, 23,976 fps
Аудио: Rus, AC3, 384 kb/s (6 ch), 48 kHz
Аудио 2: Eng, DTS, 1510 kb/s (6 ch), 48 kHz
Формат субтитров: softsub (SRT)

MediaInfo

Format : Matroska
Format version : Version 4 / Version 2
File size : 13.6 GiB
Duration : 1h 37mn
Overall bit rate : 20.1 Mbps
Movie name : Пленник. (Tonik)
Encoded date : UTC 2017-02-11 15:07:23
Writing application : mkvmerge v7.1.0 ('Good Love') 64bit built on Jul 27 2014 13:06:55
Writing library : libebml v1.3.0 + libmatroska v1.4.1
_STATISTICS_WRITING_APP : mkvmerge v7.1.0 ('Good Love') 64bit built on Jul 27 2014 13:06:55
_STATISTICS_WRITING_DATE_UTC : 2017-02-11 15:07:23
_STATISTICS_TAGS : BPS DURATION NUMBER_OF_FRAMES NUMBER_OF_BYTES
DURATION : 01:37:07.739000000
NUMBER_OF_FRAMES : 139726
NUMBER_OF_BYTES : 13247148309
Video
ID : 1
Format : AVC
Format/Info : Advanced Video Codec
Format profile : High@L4.1
Format settings, CABAC : Yes
Format settings, ReFrames : 4 frames
Codec ID : V_MPEG4/ISO/AVC
Duration : 1h 37mn
Bit rate : 17.8 Mbps
Width : 1 920 pixels
Height : 1 080 pixels
Display aspect ratio : 16:9
Frame rate mode : Constant
Frame rate : 23.976 fps
Color space : YUV
Chroma subsampling : 4:2:0
Bit depth : 8 bits
Scan type : Progressive
Bits/(Pixel*Frame) : 0.358
Stream size : 12.1 GiB (89%)
Writing library : x264 core 148 r2638 7599210
Encoding settings : cabac=1 / ref=4 / deblock=1:-3:-3 / analyse=0x3:0x113 / me=umh / subme=10 / psy=1 / psy_rd=1.00:0.00 / mixed_ref=1 / me_range=24 / chroma_me=1 / trellis=2 / 8x8dct=1 / cqm=0 / deadzone=21,11 / fast_pskip=1 / chroma_qp_offset=-2 / threads=6 / lookahead_threads=1 / sliced_threads=0 / nr=0 / decimate=1 / interlaced=0 / bluray_compat=0 / constrained_intra=0 / bframes=8 / b_pyramid=2 / b_adapt=2 / b_bias=0 / direct=1 / weightb=1 / open_gop=0 / weightp=2 / keyint=250 / keyint_min=25 / scenecut=40 / intra_refresh=0 / rc_lookahead=60 / rc=crf / mbtree=0 / crf=17.5 / qcomp=0.60 / qpmin=0 / qpmax=69 / qpstep=4 / vbv_maxrate=62500 / vbv_bufsize=78125 / crf_max=0.0 / nal_hrd=none / filler=0 / ip_ratio=1.40 / pb_ratio=1.30 / aq=1:0.80
Language : English
Default : Yes
Forced : No
Audio #1
ID : 2
Format : AC-3
Format/Info : Audio Coding 3
Mode extension : CM (complete main)
Format settings, Endianness : Big
Codec ID : A_AC3
Duration : 1h 37mn
Bit rate mode : Constant
Bit rate : 384 Kbps
Channel(s) : 6 channels
Channel positions : Front: L C R, Side: L R, LFE
Sampling rate : 48.0 KHz
Bit depth : 16 bits
Compression mode : Lossy
Stream size : 267 MiB (2%)
Language : Russian
Default : Yes
Forced : No
DURATION : 01:37:07.701000000
NUMBER_OF_FRAMES : 546347
NUMBER_OF_BYTES : 1099250164
_STATISTICS_WRITING_APP : mkvmerge v7.1.0 ('Good Love') 64bit built on Jul 27 2014 13:06:55
_STATISTICS_WRITING_DATE_UTC : 2017-02-11 15:07:23
_STATISTICS_TAGS : BPS DURATION NUMBER_OF_FRAMES NUMBER_OF_BYTES
Audio #2
ID : 3
Format : DTS
Format/Info : Digital Theater Systems
Mode : 16
Format settings, Endianness : Big
Codec ID : A_DTS
Duration : 1h 37mn
Bit rate mode : Constant
Bit rate : 1 509 Kbps
Channel(s) : 6 channels
Channel positions : Front: L C R, Side: L R, LFE
Sampling rate : 48.0 KHz
Bit depth : 24 bits
Compression mode : Lossy
Stream size : 1.02 GiB (8%)
Language : English
Default : No
Forced : No
Text #1
ID : 4
Format : UTF-8
Codec ID : S_TEXT/UTF8
Codec ID/Info : UTF-8 Plain Text
Language : Russian
Default : No
Forced : No
Text #2
ID : 5
Format : UTF-8
Codec ID : S_TEXT/UTF8
Codec ID/Info : UTF-8 Plain Text
Language : English
Default : No
Forced : No
Text #3
ID : 6
Format : UTF-8
Codec ID : S_TEXT/UTF8
Codec ID/Info : UTF-8 Plain Text
Title : SDH
Language : English
Default : No
Forced : No
Menu
00:00:00.000 : en:00:00:00.000
00:05:24.366 : en:00:05:24.366
00:10:19.244 : en:00:10:19.244
00:14:30.912 : en:00:14:30.912
00:19:38.052 : en:00:19:38.052
00:25:40.664 : en:00:25:40.664
00:31:23.548 : en:00:31:23.548
00:37:18.736 : en:00:37:18.736
00:43:18.179 : en:00:43:18.179
00:47:06.782 : en:00:47:06.782
00:52:34.568 : en:00:52:34.568
00:57:48.507 : en:00:57:48.507
01:04:46.341 : en:01:04:46.341
01:11:44.884 : en:01:11:44.884
01:16:59.031 : en:01:16:59.031
01:21:53.742 : en:01:21:53.742
01:27:58.857 : en:01:27:58.857
01:32:20.368 : en:01:32:20.368

Скриншоты

[Profile]  [PM] 
Display posts:    
Reply to topic

Current time is: 25-Sep 20:08

All times are UTC + 2



You cannot post new topics in this forum
You cannot reply to topics in this forum
You cannot edit your posts in this forum
You cannot delete your posts in this forum
You cannot vote in polls in this forum
You cannot attach files in this forum
You cannot download files in this forum