Двойной дракон / Double Dragon (Джеймс Юкич / James Yukich) [1994, США, фантастика, боевик, комедия, игровой, BDRemux 1080p] 2x MVO (Twister/R5, РТР) + 3x AVO (Гаврилов, Визгунов, Горчаков) + Ukr + Sub Rus, Eng + Original Eng

Reply to topic
 
Author
Message

Faust ®

Gender: Unknown

Longevity: 9 years 2 months

Posts: 14058

Reputation: 0 [+] [-]

Faust · Post 13-Feb-2017 17:35

[Quote] 

Двойной дракон / Double Dragon
Страна: США
Жанр: фантастика, боевик, комедия, игровой
Год выпуска: 1994
Продолжительность: 01:35:32
-
Перевод 1: Профессиональный (многоголосый закадровый) Twister, R5
Перевод 2: Профессиональный (многоголосый закадровый) РТР
Перевод 3: Авторский (одноголосый закадровый) Андрей Гаврилов
Перевод 4: Авторский (одноголосый закадровый) Сергей Визгунов
Перевод 5: Авторский (одноголосый закадровый) Василий Горчаков
Cубтитры: русские и английские (полные)
Оригинальная аудиодорожка: английский
-
Режиссер: Джеймс Юкич / James Yukich
В ролях: Марк Дакаскос, Скотт Вулф, Роберт Патрик, Кристина Вагнер, Джулия Никсон-Соул, Алисса Милано, Нилс Аллен Стюарт, Генри Кинги, Джон Мэллори Ашер, Леон Рассом
-
Описание: «Двойной дракон» создан по мотивам популярнейшей игровой программы, распроданной в мире тиражом более 5,5 млн. экземпляров. Рукопашные схватки с экрана монитора переносятся в фантастическую реальность затопленного Лос-Анджелеса. Братья Ли, виртуозно владеющие восточными единоборствами, вступают в битву за обладание второй половиной магического талисмана. Возглавляемые демоном Кога Шуко, силы тьмы вступают на пути Джимми и Билли. Через лабиринты руин, по водной глади рек и опустевшим улицам пройдут братья, чтобы завладеть древней силой и спасти родной город.
-

-
Сэмпл: http://sendfile.su/1307835
-
Тип релиза: BDRemux 1080p
Контейнер: MKV
Видео: MPEG-4 AVC, 1920x1080p (16:9), 23.976 fps, 26407 kbps
Аудио 1: русский / AC3 / 5.1 / 48 kHz / 384 kbps / 16 bit || MVO - Twister
Аудио 2: русский / AC3 / 2.0 / 48 kHz / 192 kbps / 16 bit || MVO - РТР
Аудио 3: русский / AC3 / 5.1 / 48 kHz / 384 kbps / 16 bit || AVO - Андрей Гаврилов
Аудио 4: русский / AC3 / 2.0 / 48 kHz / 192 kbps / 16 bit || AVO - Сергей Визгунов
Аудио 5: русский / AC3 / 2.0 / 48 kHz / 192 kbps / 16 bit || AVO - Василий Горчаков
Аудио 6: украинский / AC3 / 2.0 / 48 kHz / 192 kbps / 16 bit || MVO - NTN
Аудио 7: английский / AC3 / 5.1 / 48 kHz / 448 kbps / 16 bit || ENG
Формат субтитров: softsub (SRT)
Главы: есть

MediaInfo

General
Unique ID : 224793270438333737056328630885351337524 (0xA91D9BECE3A34EFD8281DC57F516AE34)
Complete name : C:\Users\ALEX\Desktop\Фильмы\HD\Double Dragon.1994.BDRemux.1080p.5xRus.Ukr.Eng.Subs.Chpt.mkv
Format : Matroska
Format version : Version 4 / Version 2
File size : 18.9 GiB
Duration : 1 h 35 min
Overall bit rate mode : Variable
Overall bit rate : 28.4 Mb/s
Movie name : Double Dragon.BDRemux
Encoded date : UTC 2017-02-11 10:30:00
Writing application : mkvmerge v8.5.2 ('Crosses') 64bit
Writing library : libebml v1.3.3 + libmatroska v1.4.4
Video
ID : 1
Format : AVC
Format/Info : Advanced Video Codec
Format profile : Main@L4.1
Format settings, CABAC : Yes
Format settings, ReFrames : 3 frames
Codec ID : V_MPEG4/ISO/AVC
Duration : 1 h 35 min
Bit rate mode : Variable
Bit rate : 26.4 Mb/s
Maximum bit rate : 35.0 Mb/s
Width : 1 920 pixels
Height : 1 080 pixels
Display aspect ratio : 16:9
Frame rate mode : Constant
Frame rate : 23.976 (24000/1001) FPS
Standard : NTSC
Color space : YUV
Chroma subsampling : 4:2:0
Bit depth : 8 bits
Scan type : Progressive
Bits/(Pixel*Frame) : 0.531
Stream size : 17.6 GiB (93%)
Title : Double Dragon.BDRemux
Default : Yes
Forced : No
Color range : Limited
Audio #1
ID : 2
Format : AC-3
Format/Info : Audio Coding 3
Mode extension : CM (complete main)
Format settings, Endianness : Big
Codec ID : A_AC3
Duration : 1 h 35 min
Bit rate mode : Constant
Bit rate : 384 kb/s
Channel(s) : 6 channels
Channel positions : Front: L C R, Side: L R, LFE
Sampling rate : 48.0 kHz
Frame rate : 31.250 FPS (1536 spf)
Compression mode : Lossy
Stream size : 262 MiB (1%)
Title : MVO (Twister, R5)
Language : Russian
Default : Yes
Forced : No
Audio #2
ID : 3
Format : AC-3
Format/Info : Audio Coding 3
Mode extension : CM (complete main)
Format settings, Endianness : Big
Codec ID : A_AC3
Duration : 1 h 35 min
Bit rate mode : Constant
Bit rate : 192 kb/s
Channel(s) : 2 channels
Channel positions : Front: L R
Sampling rate : 48.0 kHz
Frame rate : 31.250 FPS (1536 spf)
Compression mode : Lossy
Stream size : 131 MiB (1%)
Title : MVO (РТР) со вставками MVO (Twister)
Language : Russian
Default : No
Forced : No
Audio #3
ID : 4
Format : AC-3
Format/Info : Audio Coding 3
Mode extension : CM (complete main)
Format settings, Endianness : Big
Codec ID : A_AC3
Duration : 1 h 35 min
Bit rate mode : Constant
Bit rate : 384 kb/s
Channel(s) : 6 channels
Channel positions : Front: L C R, Side: L R, LFE
Sampling rate : 48.0 kHz
Frame rate : 31.250 FPS (1536 spf)
Compression mode : Lossy
Stream size : 262 MiB (1%)
Title : AVO (Андрей Гаврилов)
Language : Russian
Default : No
Forced : No
Audio #4
ID : 5
Format : AC-3
Format/Info : Audio Coding 3
Mode extension : CM (complete main)
Format settings, Endianness : Big
Codec ID : A_AC3
Duration : 1 h 35 min
Bit rate mode : Constant
Bit rate : 192 kb/s
Channel(s) : 2 channels
Channel positions : Front: L R
Sampling rate : 48.0 kHz
Frame rate : 31.250 FPS (1536 spf)
Compression mode : Lossy
Stream size : 131 MiB (1%)
Title : AVO (Сергей Визгунов)
Language : Russian
Default : No
Forced : No
Audio #5
ID : 6
Format : AC-3
Format/Info : Audio Coding 3
Mode extension : CM (complete main)
Format settings, Endianness : Big
Codec ID : A_AC3
Duration : 1 h 35 min
Bit rate mode : Constant
Bit rate : 192 kb/s
Channel(s) : 2 channels
Channel positions : Front: L R
Sampling rate : 48.0 kHz
Frame rate : 31.250 FPS (1536 spf)
Compression mode : Lossy
Stream size : 131 MiB (1%)
Title : AVO (Василий Горчаков)
Language : Russian
Default : No
Forced : No
Audio #6
ID : 7
Format : AC-3
Format/Info : Audio Coding 3
Mode extension : CM (complete main)
Format settings, Endianness : Big
Codec ID : A_AC3
Duration : 1 h 35 min
Bit rate mode : Constant
Bit rate : 192 kb/s
Channel(s) : 2 channels
Channel positions : Front: L R
Sampling rate : 48.0 kHz
Frame rate : 31.250 FPS (1536 spf)
Compression mode : Lossy
Stream size : 131 MiB (1%)
Title : MVO (NTN)
Language : Ukrainian
Default : No
Forced : No
Audio #7
ID : 8
Format : AC-3
Format/Info : Audio Coding 3
Mode extension : CM (complete main)
Format settings, Endianness : Big
Codec ID : A_AC3
Duration : 1 h 35 min
Bit rate mode : Constant
Bit rate : 448 kb/s
Channel(s) : 6 channels
Channel positions : Front: L C R, Side: L R, LFE
Sampling rate : 48.0 kHz
Frame rate : 31.250 FPS (1536 spf)
Compression mode : Lossy
Stream size : 306 MiB (2%)
Title : Original
Language : English
Default : No
Forced : No
Text #1
ID : 9
Format : UTF-8
Codec ID : S_TEXT/UTF8
Codec ID/Info : UTF-8 Plain Text
Duration : 1 h 30 min
Bit rate : 62 b/s
Count of elements : 823
Stream size : 41.2 KiB (0%)
Title : Full
Language : Russian
Default : No
Forced : No
Text #2
ID : 10
Format : UTF-8
Codec ID : S_TEXT/UTF8
Codec ID/Info : UTF-8 Plain Text
Duration : 1 h 29 min
Bit rate : 41 b/s
Count of elements : 909
Stream size : 27.4 KiB (0%)
Title : Full
Language : English
Default : No
Forced : No
Menu
00:00:00.000 : en:Chapter 01
00:05:00.000 : en:Chapter 02
00:10:00.000 : en:Chapter 03
00:15:00.000 : en:Chapter 04
00:20:00.000 : en:Chapter 05
00:25:00.000 : en:Chapter 06
00:30:00.000 : en:Chapter 07
00:35:00.000 : en:Chapter 08
00:40:00.000 : en:Chapter 09
00:45:00.000 : en:Chapter 10
00:50:00.000 : en:Chapter 11
00:55:00.000 : en:Chapter 12
01:00:00.000 : en:Chapter 13
01:05:00.000 : en:Chapter 14
01:10:00.000 : en:Chapter 15
01:15:00.000 : en:Chapter 16
01:20:00.000 : en:Chapter 17
01:25:00.000 : en:Chapter 18
01:30:00.000 : en:Chapter 19
01:35:00.000 : en:Chapter 20

Скриншоты

[Profile]  [PM] 
Display posts:    
Reply to topic

Current time is: 01-Dec 03:48

All times are UTC + 2



You cannot post new topics in this forum
You cannot reply to topics in this forum
You cannot edit your posts in this forum
You cannot delete your posts in this forum
You cannot vote in polls in this forum
You cannot attach files in this forum
You cannot download files in this forum