Уиджи. Проклятие доски дьявола / Ouija: Origin of Evil (Майк Флэнеган / Mike Flanagan) [2016, США, ужасы, триллер, BDRip 1080p] Dub (BD CEE) + Sub Rus, Eng + Original Eng

Reply to topic
 
Author
Message

Faust ®

Gender: Unknown

Longevity: 9 years 10 months

Posts: 15689

Reputation: 0 [+] [-]

Faust · Post 13-Feb-2017 17:35

[Quote] 

Уиджи. Проклятие доски дьявола / Ouija: Origin of Evil
Страна: США
Студия: Allspark Pictures, Blumhouse Productions, Hasbro Inc.
Жанр: ужасы, триллер
Год выпуска: 2016
Продолжительность: 01:38:54
Перевод: Профессиональный (дублированный) BD CEE
Cубтитры: Русские, Английские
Оригинальная аудиодорожка: английский
Режиссер: Майк Флэнеган / Mike Flanagan
В ролях: Анналиса Бассо, Элизабет Ризер, Лулу Уилсон, Генри Томас, Паркер Мак, Холли Чарлтон, Алексис Дж. Залл, Даг Джонс, Кейт Сигел, Сэм Андерсон
Описание: Спиритическая доска Уиджи никогда не была просто игрой. Она служила порталом в мир мертвых. Столетиями она служила вратами между миром живых и царством мертвых. Но однажды духи выйдут из-под контроля, и первородное зло овладеет душой ребенка…
Скачать сэмпл

Тип релиза: BDRip 1080p
Контейнер: MKV
Видео: MPEG-4 AVC, 19,1 Мбит/с, 1920x1038, 23,976 fps
Аудио 1: Rus, DTS, 768 kb/s (6 ch), 48 kHz
Аудио 2: Eng, DTS, 1509 kb/s (6 ch), 48 kHz
Формат субтитров: softsub (SRT)

x264 info

x264 [info]: frame I:953 Avg QP:14.54 size:268359
x264 [info]: frame P:25524 Avg QP:15.57 size:147741
x264 [info]: frame B:115815 Avg QP:17.10 size: 87680
x264 [info]: consecutive B-frames: 1.0% 0.5% 2.5% 6.8% 8.9% 70.7% 6.9% 1.1% 0.9% 0.7%

MediaInfo

Общее
Уникальный идентификатор : 234840621696114931851820210346043402803 (0xB0ACA8969F2E30B9B1FF6CDA90506A33)
Полное имя : Ouija Origin of Evil 2016 BDRip.1080p.mkv
Формат : Matroska
Версия формата : Version 4 / Version 2
Размер файла : 14,8 Гбайт
Продолжительность : 1 ч. 38 м.
Общий поток : 21,4 Мбит/сек
Дата кодирования : UTC 2017-02-10 18:27:46
Программа кодирования : mkvmerge v9.8.0 ('Kuglblids') 64bit
Библиотека кодирования : libebml v1.3.4 + libmatroska v1.4.5
Видео
Идентификатор : 1
Формат : AVC
Формат/Информация : Advanced Video Codec
Профиль формата : High@L4.1
Параметр CABAC формата : Да
Параметр ReFrames формата : 4 кадра
Идентификатор кодека : V_MPEG4/ISO/AVC
Продолжительность : 1 ч. 38 м.
Битрейт : 19,1 Мбит/сек
Ширина : 1920 пикселей
Высота : 1038 пикселей
Соотношение сторон : 1,85:1
Режим частоты кадров : Постоянный
Частота кадров : 23,976 (24000/1001) кадра/сек
Цветовое пространство : YUV
Субдискретизация насыщенности : 4:2:0
Битовая глубина : 8 бит
Тип развёртки : Прогрессивная
Бит/(Пиксели*Кадры) : 0.400
Размер потока : 13,2 Гбайт (89%)
Библиотека кодирования : x264 core 148 r2721.18 cd45d75 VietHD_Custom_64
Настройки программы : cabac=1 / ref=4 / deblock=1:-3:-3 / analyse=0x3:0x133 / me=umh / subme=10 / psy=1 / fade_compensate=0.00 / psy_rd=1.10:0.00 / mixed_ref=1 / me_range=24 / chroma_me=1 / trellis=2 / 8x8dct=1 / cqm=0 / deadzone=21,11 / fast_pskip=0 / chroma_qp_offset=-2 / threads=12 / lookahead_threads=2 / sliced_threads=0 / nr=0 / decimate=0 / interlaced=0 / bluray_compat=0 / constrained_intra=0 / fgo=0 / bframes=9 / b_pyramid=2 / b_adapt=2 / b_bias=0 / direct=3 / weightb=1 / open_gop=0 / weightp=2 / keyint=250 / keyint_min=23 / scenecut=40 / intra_refresh=0 / rc_lookahead=60 / rc=crf / mbtree=0 / crf=17.5000 / qcomp=0.65 / qpmin=0:0:0 / qpmax=69:69:69 / qpstep=4 / vbv_maxrate=62500 / vbv_bufsize=78125 / crf_max=0.0 / nal_hrd=none / filler=0 / ip_ratio=1.30 / pb_ratio=1.20 / aq=3:0.70 / aq-sensitivity=10.00 / aq-factor=1.00:1.00:1.00 / aq2=0 / aq3=0
Язык : English
Default : Да
Forced : Нет
Цветовой диапазон : Limited
Коэффициенты матрицы : BT.709
Аудио #1
Идентификатор : 2
Формат : DTS
Формат/Информация : Digital Theater Systems
Режим : 16
Параметр Endianness формата : Big
Идентификатор кодека : A_DTS
Продолжительность : 1 ч. 38 м.
Вид битрейта : Постоянный
Битрейт : 768 Кбит/сек
Каналы : 6 каналов
Расположение каналов : Front: L C R, Side: L R, LFE
Частота : 48,0 КГц
Частота кадров : 93,750 кадра/сек (512 spf)
Битовая глубина : 24 бит
Метод сжатия : С потерями
Размер потока : 539 Мбайт (4%)
Заголовок : BD CEE
Язык : Russian
Default : Да
Forced : Нет
Аудио #2
Идентификатор : 3
Формат : DTS
Формат/Информация : Digital Theater Systems
Режим : 16
Параметр Endianness формата : Big
Идентификатор кодека : A_DTS
Продолжительность : 1 ч. 38 м.
Вид битрейта : Постоянный
Битрейт : 1509 Кбит/сек
Каналы : 6 каналов
Расположение каналов : Front: L C R, Side: L R, LFE
Частота : 48,0 КГц
Частота кадров : 93,750 кадра/сек (512 spf)
Битовая глубина : 24 бит
Метод сжатия : С потерями
Размер потока : 1,04 Гбайт (7%)
Язык : English
Default : Нет
Forced : Нет
Текст #1
Идентификатор : 4
Формат : UTF-8
Идентификатор кодека : S_TEXT/UTF8
Идентификатор кодека/Информация : UTF-8 Plain Text
Продолжительность : 1 ч. 38 м.
Битрейт : 0 бит/сек
Count of elements : 26
Размер потока : 396 байт (0%)
Заголовок : Forced
Язык : Russian
Default : Да
Forced : Нет
Текст #2
Идентификатор : 5
Формат : UTF-8
Идентификатор кодека : S_TEXT/UTF8
Идентификатор кодека/Информация : UTF-8 Plain Text
Продолжительность : 1 ч. 38 м.
Битрейт : 55 бит/сек
Count of elements : 1044
Размер потока : 40,4 Кбайт (0%)
Язык : Russian
Default : Нет
Forced : Нет
Текст #3
Идентификатор : 6
Формат : UTF-8
Идентификатор кодека : S_TEXT/UTF8
Идентификатор кодека/Информация : UTF-8 Plain Text
Продолжительность : 1 ч. 37 м.
Битрейт : 39 бит/сек
Count of elements : 1044
Размер потока : 28,1 Кбайт (0%)
Язык : English
Default : Нет
Forced : Нет
Текст #4
Идентификатор : 7
Формат : UTF-8
Идентификатор кодека : S_TEXT/UTF8
Идентификатор кодека/Информация : UTF-8 Plain Text
Продолжительность : 1 ч. 38 м.
Битрейт : 42 бит/сек
Count of elements : 1135
Размер потока : 30,3 Кбайт (0%)
Заголовок : SDH
Язык : English
Default : Нет
Forced : Нет
Меню
00:00:00.000 : en:00:00:00.000
00:05:30.747 : en:00:05:30.747
00:09:12.469 : en:00:09:12.469
00:14:19.525 : en:00:14:19.525
00:21:37.880 : en:00:21:37.880
00:25:24.314 : en:00:25:24.314
00:30:09.850 : en:00:30:09.850
00:35:53.318 : en:00:35:53.318
00:39:04.384 : en:00:39:04.384
00:43:53.464 : en:00:43:53.464
00:48:49.677 : en:00:48:49.677
00:55:11.683 : en:00:55:11.683
00:58:47.607 : en:00:58:47.607
01:05:27.715 : en:01:05:27.715
01:10:46.284 : en:01:10:46.284
01:14:26.420 : en:01:14:26.420
01:18:25.075 : en:01:18:25.075
01:21:48.403 : en:01:21:48.403
01:27:42.841 : en:01:27:42.841
01:31:03.291 : en:01:31:03.291

Скриншоты

[Profile]  [PM] 
Display posts:    
Reply to topic

Current time is: 25-Jul 20:29

All times are UTC + 2



You cannot post new topics in this forum
You cannot reply to topics in this forum
You cannot edit your posts in this forum
You cannot delete your posts in this forum
You cannot vote in polls in this forum
You cannot attach files in this forum
You cannot download files in this forum