Здравозахоронение / Sicko (Michael Moore / Майкл Мур) [2007, Документальный, WEB-DL 1080p]

Reply to topic
 
Author
Message

Atila ®

Gender: Unknown

Longevity: 9 years 3 months

Posts: 2956

Reputation: 0 [+] [-]

Atila · Post 13-Feb-2017 17:35

[Quote] 

Здравозахоронение / Sicko
Год выпуска: 2007
Страна: США
Жанр: Документальный
Продолжительность: 02:03:41
Перевод: Одноголосый закадровый
Доп. инфо о переводе: Эндшпиль
Русские субтитры: есть
Режиссер: Michael Moore / Майкл Мур
Описание: В этой ленте Майкл Мур пытается выявить слабые места в американской системе здравоохранения и показать процветающую в ней коррупцию.
Сэмпл: http://sendfile.su/1308292
Тип релиза: WEB-DL 1080p
Контейнер: MKV
Видео: MPEG4 Video (H264), 1904x1064, 23.976fps, h264, 16:9, 4 712 kb/s
Аудио: Dolby AC3 48000Hz stereo 192kbps [rus]
Аудио 2: Dolby AC3 48000Hz 6ch 384kbps [eng]
Формат субтитров: softsub (SRT)

MediaInfo

GeneralUnique ID                   : 234040374613568025428918165354929284234 (0xB012895C6A2F445892645AB36A71648A)Complete name               : Sicko (2007) 1080p WEB-DL DD5.1 H.264-TrollHD.mkvFormat                      : MatroskaFormat version              : Version 2File size                   : 4.66 GiBDuration                    : 2 h 3 minOverall bit rate            : 5 396 kb/sEncoded date                : UTC 2013-01-13 13:40:56Writing application         : mkvmerge v5.8.0 ('No Sleep / Pillow') built on Sep  2 2012 15:37:04Writing library             : libebml v1.2.3 + libmatroska v1.3.0
VideoID : 1Format : AVCFormat/Info : Advanced Video CodecFormat profile : High@L4Format settings, CABAC : YesFormat settings, ReFrames : 4 framesCodec ID : V_MPEG4/ISO/AVCDuration : 2 h 3 minBit rate : 4 712 kb/sWidth : 1 904 pixelsHeight : 1 064 pixelsDisplay aspect ratio : 16:9Frame rate mode : ConstantFrame rate : 23.976 FPSColor space : YUVChroma subsampling : 4:2:0Bit depth : 8 bitsScan type : ProgressiveBits/(Pixel*Frame) : 0.097Stream size : 4.07 GiB (87%)Language : EnglishDefault : YesForced : NoColor range : LimitedColor primaries : BT.709Transfer characteristics : BT.709Matrix coefficients : BT.709
Audio #1ID : 2Format : AC-3Format/Info : Audio Coding 3Mode extension : CM (complete main)Format settings, Endianness : BigCodec ID : A_AC3Duration : 2 h 3 minBit rate mode : ConstantBit rate : 192 kb/sChannel(s) : 2 channelsChannel positions : Front: L RSampling rate : 48.0 kHzFrame rate : 31.250 FPS (1536 spf)Compression mode : LossyStream size : 170 MiB (4%)Language : RussianDefault : YesForced : No
Audio #2ID : 3Format : AC-3Format/Info : Audio Coding 3Mode extension : CM (complete main)Format settings, Endianness : BigCodec ID : A_AC3Duration : 2 h 3 minBit rate mode : ConstantBit rate : 384 kb/sChannel(s) : 6 channelsChannel positions : Front: L C R, Side: L R, LFESampling rate : 48.0 kHzFrame rate : 31.250 FPS (1536 spf)Compression mode : LossyStream size : 340 MiB (7%)Language : EnglishDefault : NoForced : No
Text #1ID : 4Format : UTF-8Codec ID : S_TEXT/UTF8Codec ID/Info : UTF-8 Plain TextLanguage : RussianDefault : YesForced : No
Text #2ID : 5Format : UTF-8Codec ID : S_TEXT/UTF8Codec ID/Info : UTF-8 Plain TextLanguage : RussianDefault : NoForced : No
Text #3ID : 6Format : UTF-8Codec ID : S_TEXT/UTF8Codec ID/Info : UTF-8 Plain TextLanguage : EnglishDefault : NoForced : No
Menu00:00:00.000 : en:Meet The Smiths00:10:21.000 : en:Rejected: Too Thin, Too Fat00:16:17.000 : en:Happy, Insured Customers00:21:35.000 : en:The Hit Man00:28:38.000 : en:A Public Confession00:30:38.000 : en:The Birth Of The HMO00:42:12.000 : en:O Canada!00:53:33.000 : en:Great Britain: Where's the Billing Department?01:03:21.000 : en:Democracy Is Revolutionary01:10:47.000 : en:An American Filmmaker In Paris01:22:33.000 : en:The French: Time To Chuck The Freedom Fries01:28:28.000 : en:"Who Are We?"01:34:16.000 : en:Sick & Forgotten: Our Heroes of 9/1101:41:32.000 : en:Escape To Guantanamo01:48:43.000 : en:Cuban Care01:55:57.000 : en:We Sink Or Swim Together

Скриншоты



WED-DL vs HDTV-Rip 720p

[Profile]  [PM] 
Display posts:    
Reply to topic

Current time is: 23-Sep 07:06

All times are UTC + 2



You cannot post new topics in this forum
You cannot reply to topics in this forum
You cannot edit your posts in this forum
You cannot delete your posts in this forum
You cannot vote in polls in this forum
You cannot attach files in this forum
You cannot download files in this forum