Голограмма для короля / A Hologram for the King (Том Тыквер / Tom Tykwer) [2016, Великобритания, Франция, Германия, США, Мексика, комедия, драма, BDRip] Dub + Original Eng + Sub Eng

Reply to topic
 
Author
Message

Satyr ®

Gender: Unknown

Longevity: 11 years

Posts: 15401

Reputation: 55 [+] [-]

Satyr · Post 13-Feb-2017 17:35

[Quote] 

-Голограмма для короля / A Hologram for the King- -Страна: Великобритания, Франция, Германия, США, Мексика
Жанр: комедия, драма
Год выпуска: 2016
Продолжительность: 01:33:44-Перевод: Профессиональный (дублированный) iTunes
Cубтитры: английские
Оригинальная аудиодорожка: английская-Режиссер: Том Тыквер / Tom Tykwer-В ролях: Том Хэнкс, Александр Блэк, Сарита Чоудри, Сидсе Бабетт Кнудсен, Трэйси Фэирэуэй, Джейн Перри, Том Скерритт, Михаэль Бараль, Льюис Райнер, Александр Молкентин-Описание: Алан Клей — муж, отец, бизнесмен. Но его бизнес терпит крах, его брак трещит по швам, и он не знает, где взять деньги на оплату обучения дочери. Чтобы избежать банкротства и разорвать замкнутый круг, Клей отправляется в Саудовскую Аравию, где он надеется продвинуть свой дерзкий технологический проект. Во время томительного ожидания встречи с королем Алан познает скрытые тайны арабского мира, которые преображают реальность, подобно голограмме. Никто не подозревал, чем обернется это путешествие к Красному морю…- - -Качество видео: BDRip / A Hologram for the King 2016 BluRay 1080p DTS-HD MA 5 1 AVC REMUX-FraMeSToR
Формат видео: AVI
Видео: XviD build 67, 720x304 (2.35:1), 23.976 fps, ~2288 kbps avg, 0.436 bit/pixel
Аудио 1: 48 kHz, AC3 Dolby Digital, 3/2 (L,C,R,l,r) + LFE ch, ~384 kbps avg
Аудио 2: 48 kHz, AC3 Dolby Digital, 3/2 (L,C,R,l,r) + LFE ch, ~448 kbps avg-

MediaInfo

Complete name : C:\Users\ИВАН\Desktop\Голограмма для короля (2016) BDRip\Голограмма для короля (2016) BDRip_ivanes20031987.avi
Format : AVI
Format/Info : Audio Video Interleave
Format profile : OpenDML
File size : 2.15 GiB
Duration : 1 h 38 min
Overall bit rate : 3 138 kb/s
Writing application : VirtualDubMod 1.5.10.3 | www.virtualdub-fr.org || (build 2550/release)
Writing library : VirtualDubMod build 2550/release
Video
ID : 0
Format : MPEG-4 Visual
Format profile : Advanced Simple@L5
Format settings, BVOP : 1
Format settings, QPel : No
Format settings, GMC : No warppoints
Format settings, Matrix : Custom
Codec ID : XVID
Codec ID/Hint : XviD
Duration : 1 h 38 min
Bit rate : 2 288 kb/s
Width : 720 pixels
Height : 304 pixels
Display aspect ratio : 2.35:1
Frame rate : 23.976 (24000/1001) FPS
Color space : YUV
Chroma subsampling : 4:2:0
Bit depth : 8 bits
Scan type : Progressive
Compression mode : Lossy
Bits/(Pixel*Frame) : 0.436
Stream size : 1.57 GiB (73%)
Writing library : XviD 67
Audio #1
ID : 1
Format : AC-3
Format/Info : Audio Coding 3
Mode extension : CM (complete main)
Format settings, Endianness : Big
Codec ID : 2000
Duration : 1 h 38 min
Bit rate mode : Constant
Bit rate : 384 kb/s
Channel(s) : 6 channels
Channel positions : Front: L C R, Side: L R, LFE
Sampling rate : 48.0 kHz
Frame rate : 31.250 FPS (1536 spf)
Bit depth : 16 bits
Compression mode : Lossy
Stream size : 270 MiB (12%)
Alignment : Split accross interleaves
Interleave, duration : 42 ms (1.00 video frame)
Interleave, preload duratio : 500 ms
Audio #2
ID : 2
Format : AC-3
Format/Info : Audio Coding 3
Mode extension : CM (complete main)
Format settings, Endianness : Big
Codec ID : 2000
Duration : 1 h 38 min
Bit rate mode : Constant
Bit rate : 448 kb/s
Channel(s) : 6 channels
Channel positions : Front: L C R, Side: L R, LFE
Sampling rate : 48.0 kHz
Frame rate : 31.250 FPS (1536 spf)
Bit depth : 16 bits
Compression mode : Lossy
Stream size : 315 MiB (14%)
Alignment : Split accross interleaves
Interleave, duration : 42 ms (1.00 video frame)
Interleave, preload duratio : 500 ms

Скриншот c названием фильма

Скриншоты

[Profile]  [PM] 
Display posts:    
Reply to topic

Current time is: 28-Nov 18:40

All times are UTC + 2



You cannot post new topics in this forum
You cannot reply to topics in this forum
You cannot edit your posts in this forum
You cannot delete your posts in this forum
You cannot vote in polls in this forum
You cannot attach files in this forum
You cannot download files in this forum