Хэвенхёрст / Havenhurst (Эндрю С. Эрин / Andrew C. Erin) [2016, США, Ужасы, мистика, триллер, HDRip] VO (BadBajo) + Original Eng

Reply to topic
 
Author
Message

Satyr ®

Online

Gender: Unknown

Longevity: 12 years

Posts: 17687

Reputation: 56 [+] [-]

Satyr · Post 13-Feb-2017 17:35

[Quote] 

Хэвенхёрст / Havenhurst
Страна: США
Жанр: Ужасы, мистика, триллер
Год выпуска: 2016
Продолжительность: 01:24:33
Перевод: Одноголосый закадровый BadBajo
Cубтитры: нет
Оригинальная аудиодорожка: английский
Режиссер: Эндрю С. Эрин / Andrew C. Erin
В ролях: Джули Бенц, Фионнула Флэнаган, Белль Шусе, Джош Стэмберг, Даниэль Харрис, Дендри Тейлор, Тоби Хасс, Дуглас Тейт, Мэтт Ласки
Описание: В самом центре Нью-Йорка стоит самый настоящий дом с привидениями, в который можно заселиться, но нельзя выселиться. Разве что на тот свет. Выйдя из реабилитационного центра, Джеки получает второй шанс — новую работу и комнату в многоквартирном доме Хэвенхёрст. Началом всех бед для женщины стала смерть маленькой дочери, затем последовал нервный срыв, алкоголь, наркотики… Однако, всякая боль со временем проходит, поэтому попасть в Хэвенхёрст для Джеки удача. По крайней мере, ей так казалось.
Сэмпл: http://multi-up.com/1140333
Качество видео: HDRip (исходник не известен)
Формат видео: AVI
Видео: 720x304 (2.37:1), 24.000 fps, XviD build 66 ~1861 kbps avg, 0.35 bit/pixel
Аудио: 48 kHz, AC3 Dolby Digital, 3/2 (L,C,R,l,r) + LFE ch, ~384 kbps
Аудио 2: 48 kHz, AC3 Dolby Digital, 2/0 (L,R) ch, ~192 kbps

MediaInfo

Format : AVI
Format/Info : Audio Video Interleave
File size : 1.45 GiB
Duration : 1 h 24 min
Overall bit rate : 2 453 kb/s
Writing application : VirtualDubMod 1.5.10.3 | www.virtualdub-fr.org || (build 2550/release)
Writing library : VirtualDubMod build 2550/release
Video
ID : 0
Format : MPEG-4 Visual
Format profile : Advanced Simple@L5
Format settings, BVOP : 2
Format settings, QPel : No
Format settings, GMC : No warppoints
Format settings, Matrix : Default (H.263)
Codec ID : XVID
Codec ID/Hint : XviD
Duration : 1 h 24 min
Bit rate : 1 863 kb/s
Width : 720 pixels
Height : 304 pixels
Display aspect ratio : 2.35:1
Frame rate : 24.000 FPS
Color space : YUV
Chroma subsampling : 4:2:0
Bit depth : 8 bits
Scan type : Progressive
Compression mode : Lossy
Bits/(Pixel*Frame) : 0.355
Stream size : 1.10 GiB (76%)
Writing library : XviD 66
Audio #1
ID : 1
Format : AC-3
Format/Info : Audio Coding 3
Mode extension : CM (complete main)
Format settings, Endianness : Big
Codec ID : 2000
Duration : 1 h 24 min
Bit rate mode : Constant
Bit rate : 384 kb/s
Channel(s) : 6 channels
Channel positions : Front: L C R, Side: L R, LFE
Sampling rate : 48.0 kHz
Frame rate : 31.250 FPS (1536 spf)
Compression mode : Lossy
Stream size : 232 MiB (16%)
Alignment : Split accross interleaves
Interleave, duration : 42 ms (1.00 video frame)
Interleave, preload duration : 500 ms
Audio #2
ID : 2
Format : AC-3
Format/Info : Audio Coding 3
Mode extension : CM (complete main)
Format settings, Endianness : Big
Codec ID : 2000
Duration : 1 h 24 min
Bit rate mode : Constant
Bit rate : 192 kb/s
Channel(s) : 2 channels
Channel positions : Front: L R
Sampling rate : 48.0 kHz
Frame rate : 31.250 FPS (1536 spf)
Compression mode : Lossy
Stream size : 116 MiB (8%)
Alignment : Split accross interleaves
Interleave, duration : 42 ms (1.00 video frame)
Interleave, preload duration : 500 ms

Скриншот c названием фильма

Скриншоты

Сравнение

Вот с этим http://torrentsland.com.ua/forum/viewtopic.php?t=5356197 вот здесь http://screenshotcomparison.com/comparison/200350/picture:2
+ у конкурента
Muxing mode : Packed bitstream
[Profile]  [PM] 
Display posts:    
Reply to topic

Current time is: 21-Jun 18:20

All times are UTC + 2



You cannot post new topics in this forum
You cannot reply to topics in this forum
You cannot edit your posts in this forum
You cannot delete your posts in this forum
You cannot vote in polls in this forum
You cannot attach files in this forum
You cannot download files in this forum