Дни Искушения / Last Days in the Desert (Родриго Гарсия / Rodrigo García) [2015, США, драма, приключения, история, WEB-DLRip] Dub

Reply to topic
 
Author
Message

Satyr ®

Online

Gender: Unknown

Longevity: 12 years

Posts: 17867

Reputation: 56 [+] [-]

Satyr · Post 14-Feb-2017 14:00

[Quote] 

-Дни Искушения / Last Days in the Desert- -Страна: США
Жанр: драма, приключения, история
Год выпуска: 2015
Продолжительность: 01:39:42-Перевод: Профессиональный (дублированный) iTunes
Cубтитры: нет
Оригинальная аудиодорожка: нет-Режиссер: Родриго Гарсия / Rodrigo García-В ролях: Эван МакГрегор, Киаран Хайндс, Айелет Зурер, Тай Шеридан, Сьюзэн Грэй-Описание: Иисус держит путь через пустыню, проводя сорок дней за молитвой и постом. На своем пути он борется с Искусителем за судьбу простой семьи и проходит испытание земными страстями.- - -Качество видео: WEB-DLRip / WEB-DL 1080p
Формат видео: AVI-Видео: XviD build 67, 688x288 (2.40:1), 23.976 fps, ~897 kbps avg, 0.189 bit/pixel
Аудио: 48 kHz, MP3, 2/0 (L,R) ch, ~128 kbps avg-

MediaInfo

Complete name : C:\Users\ИВАН\Desktop\Дни Искушения (2015) WEB-DLRip_ivanes20031987.avi
Format : AVI
Format/Info : Audio Video Interleave
File size : 738 MiB
Duration : 1 h 39 min
Overall bit rate : 1 034 kb/s
Writing application : VirtualDubMod 1.5.10.3 | www.virtualdub-fr.org || (build 2550/release)
Writing library : VirtualDubMod build 2550/release
Video
ID : 0
Format : MPEG-4 Visual
Format profile : Advanced Simple@L5
Format settings, BVOP : 1
Format settings, QPel : No
Format settings, GMC : No warppoints
Format settings, Matrix : Custom
Codec ID : XVID
Codec ID/Hint : XviD
Duration : 1 h 39 min
Bit rate : 897 kb/s
Width : 688 pixels
Height : 288 pixels
Display aspect ratio : 2.40:1
Frame rate : 23.976 (24000/1001) FPS
Color space : YUV
Chroma subsampling : 4:2:0
Bit depth : 8 bits
Scan type : Progressive
Compression mode : Lossy
Bits/(Pixel*Frame) : 0.189
Stream size : 640 MiB (87%)
Writing library : XviD 67
Audio
ID : 1
Format : MPEG Audio
Format version : Version 1
Format profile : Layer 3
Mode : Joint stereo
Mode extension : MS Stereo
Codec ID : 55
Codec ID/Hint : MP3
Duration : 1 h 39 min
Bit rate mode : Constant
Bit rate : 128 kb/s
Channel(s) : 2 channels
Sampling rate : 48.0 kHz
Compression mode : Lossy
Stream size : 91.2 MiB (12%)
Alignment : Aligned on interleaves
Interleave, duration : 42 ms (1.00 video frame)
Interleave, preload duratio : 504 ms
Writing library : LAME3.99r
Encoding settings : -m j -V 4 -q 2 -lowpass 17 -b 128

Скриншот c названием фильма

Скриншоты

[Profile]  [PM] 
Display posts:    
Reply to topic

Current time is: 25-Jul 21:35

All times are UTC + 2



You cannot post new topics in this forum
You cannot reply to topics in this forum
You cannot edit your posts in this forum
You cannot delete your posts in this forum
You cannot vote in polls in this forum
You cannot attach files in this forum
You cannot download files in this forum