Доктор Стрэндж / Doctor Strange (Скотт Дерриксон / Scott Derrickson) [2016, США, фантастика, фэнтези, боевик, WEB-DLRip-AVC] Dub + Original + Sub (rus, eng)

Reply to topic
 
Author
Message

Satyr ®

Online

Gender: Unknown

Longevity: 11 years

Posts: 15401

Reputation: 55 [+] [-]

Satyr · Post 14-Feb-2017 14:00

[Quote] 

Доктор Стрэндж / Doctor Strange«За гранью сознания лежит новая реальность»- Страна: США
Жанр: фантастика, фэнтези, боевик, приключения
Год выпуска: 2016
Продолжительность: 01:55:15
Перевод: Профессиональный (дублированный) (iTunes)
Оригинальная аудиодорожка: английский
Субтитры: русские (форс., полные) английские (форс., полные)
Навигация по главам: есть
Режиссер: Скотт Дерриксон / Scott Derrickson
В ролях: Бенедикт Камбербэтч (Dr. Stephen Strange), Тильда Суинтон (The Ancient One), Мадс Миккельсен (Kaecilius), Чиветель Эджиофор (Mordo), Рэйчел МакАдамс (Christine Palmer), Бенедикт Вонг (Wong), Майкл Стулбарг (Dr. Nicodemus West), Бенджамин Брэтт (Jonathan Pangborn), Скотт Эдкинс (Lucian / Strong Zealot), Зара Питиан (Brunette Zealot), Алаа Умузун (Tall Zealot), Катрина Дерден (Blonde Zealot)
Описание: Страшная автокатастрофа поставила крест на карьере успешного нейрохирурга Доктора Стрэнджа. Отчаявшись, он отправляется в путешествие в поисках исцеления и открывает в себе невероятные способности к трансформации пространства и времени. Теперь он - связующее звено между параллельными измерениями, а его миссия - защищать жителей Земли и противодействовать Злу, какое бы обличие оно ни принимало.- -Качество: WEB-DLRip-AVC (исходник - Dr.STRANGE_WEB_DL_1080p-BLUEBIRD)
Формат видео: MKV
Видео: x264, 1032x432 (2.40:1) 23,976 fps, ~1286 kbps, 0.120 bit/pixel
Аудио 1: 48 kHz, AC3 Dolby Digital, 5.1 (Front: L C R, Side: L R, LFE) ch, ~384 kbps, [русский]
Аудио 2: 48 kHz, AC3 Dolby Digital, 2.0 (Front: L R) ch, ~192 kbps, [английский]
Формат субтитров: softsub (SRT)-

MediaInfo | x264 log

Format : Matroska
Format version : Version 4 / Version 2
File size : 1.53 GiB
Duration : 1 h 55 min
Overall bit rate : 1 901 kb/s
Movie name : Доктор Стрэндж / Doctor Strange (2016) :: AFM ::
Encoded date : UTC 2017-02-14 00:08:33
Writing application : mkvmerge v8.3.0 ('Over the Horizon') 32bit
Writing library : libebml v1.3.1 + libmatroska v1.4.2
Video
ID : 1
Format : AVC
Format/Info : Advanced Video Codec
Format profile : High@L4.1
Format settings, CABAC : Yes
Format settings, ReFrames : 10 frames
Codec ID : V_MPEG4/ISO/AVC
Duration : 1 h 55 min
Bit rate : 1 287 kb/s
Width : 1 032 pixels
Height : 432 pixels
Display aspect ratio : 2.40:1
Frame rate mode : Constant
Frame rate : 23.976 (24000/1001) FPS
Color space : YUV
Chroma subsampling : 4:2:0
Bit depth : 8 bits
Scan type : Progressive
Bits/(Pixel*Frame) : 0.120
Stream size : 1.04 GiB (68%)
Title : WEB-DLRip by AFM
Writing library : x264 core 148 r2762+56 6284cf3 t_mod_Custom [8-bit@all X86_64]
Encoding settings : cabac=1 / ref=10 / deblock=1:-2:-1 / analyse=0x3:0x113 / me=umh / subme=10 / psy=1 / fade_compensate=0.00 / psy_rd=1.00:0.00 / mixed_ref=1 / me_range=32 / chroma_me=1 / trellis=2 / 8x8dct=1 / cqm=0 / deadzone=21,11 / fast_pskip=0 / chroma_qp_offset=-2 / threads=6 / lookahead_threads=1 / sliced_threads=0 / nr=0 / decimate=1 / interlaced=0 / bluray_compat=0 / constrained_intra=0 / fgo=0 / bframes=12 / b_pyramid=2 / b_adapt=2 / b_bias=0 / direct=1 / weightb=1 / open_gop=0 / weightp=2 / keyint=240 / keyint_min=23 / scenecut=40 / intra_refresh=0 / rc_lookahead=60 / rc=crf / mbtree=0 / crf=19.5000 / qcomp=0.65 / qpmin=0:0:0 / qpmax=69:69:69 / qpstep=4 / vbv_maxrate=50000 / vbv_bufsize=62500 / crf_max=0.0 / nal_hrd=none / filler=0 / ip_ratio=1.35 / pb_ratio=1.30 / aq=3:0.90 / aq-sensitivity=10.00 / aq-factor=1.00:1.00:1.00 / aq2=0 / aq3=0 / zones=154670,162595,q=30
Language : English
Default : Yes
Forced : No
Audio #1
ID : 2
Format : AC-3
Format/Info : Audio Coding 3
Mode extension : CM (complete main)
Format settings, Endianness : Big
Codec ID : A_AC3
Duration : 1 h 55 min
Bit rate mode : Constant
Bit rate : 384 kb/s
Channel(s) : 6 channels
Channel positions : Front: L C R, Side: L R, LFE
Sampling rate : 48.0 kHz
Frame rate : 31.250 FPS (1536 spf)
Compression mode : Lossy
Stream size : 317 MiB (20%)
Title : Dub, AC3 5.1 ~384 kbps
Language : Russian
Default : Yes
Forced : No
Audio #2
ID : 3
Format : AC-3
Format/Info : Audio Coding 3
Mode extension : CM (complete main)
Format settings, Endianness : Big
Codec ID : A_AC3
Duration : 1 h 55 min
Bit rate mode : Constant
Bit rate : 192 kb/s
Channel(s) : 2 channels
Channel positions : Front: L R
Sampling rate : 48.0 kHz
Frame rate : 31.250 FPS (1536 spf)
Compression mode : Lossy
Stream size : 158 MiB (10%)
Title : Original, AC3 2.0 ~192 kbps
Language : English
Default : No
Forced : No
Text #1
ID : 4
Format : UTF-8
Codec ID : S_TEXT/UTF8
Codec ID/Info : UTF-8 Plain Text
Title : forced
Language : Russian
Default : Yes
Forced : No
Text #2
ID : 5
Format : UTF-8
Codec ID : S_TEXT/UTF8
Codec ID/Info : UTF-8 Plain Text
Language : Russian
Default : No
Forced : No
Text #3
ID : 6
Format : UTF-8
Codec ID : S_TEXT/UTF8
Codec ID/Info : UTF-8 Plain Text
Title : forced
Language : English
Default : No
Forced : No
Text #4
ID : 7
Format : UTF-8
Codec ID : S_TEXT/UTF8
Codec ID/Info : UTF-8 Plain Text
Language : English
Default : No
Forced : No
Menu
00:00:00.000 : en:1
00:04:35.000 : en:2
00:10:17.000 : en:3
00:18:33.000 : en:4
00:24:38.000 : en:5
00:31:41.000 : en:6
00:38:34.000 : en:7
00:43:17.000 : en:8
00:48:25.000 : en:9
00:55:35.000 : en:10
01:05:05.000 : en:11
01:12:39.000 : en:12
01:22:15.000 : en:13
01:28:29.000 : en:14
01:35:02.000 : en:15
01:45:07.000 : en:16

x264

x264 [info]: frame I:1369 Avg QP:16.38 size: 34234
x264 [info]: frame P:41584 Avg QP:17.77 size: 13681
x264 [info]: frame B:122858 Avg QP:19.93 size: 4294
x264 [info]: consecutive B-frames: 2.4% 2.8% 6.2% 61.3% 9.5% 14.2% 1.6% 0.9% 0.2% 0.1% 0.1% 0.3% 0.4%
x264 [info]: mb I I16..4: 7.3% 71.5% 21.2%
x264 [info]: mb P I16..4: 1.5% 11.4% 1.9% P16..4: 40.3% 26.7% 11.9% 0.0% 0.0% skip: 6.4%
x264 [info]: mb B I16..4: 0.1% 1.0% 0.2% B16..8: 41.0% 9.8% 2.0% direct: 3.7% skip:42.2% L0:41.7% L1:49.0% BI: 9.3%
x264 [info]: 8x8 transform intra:76.1% inter:69.1%
x264 [info]: coded y,uvDC,uvAC intra: 79.7% 75.3% 45.3% inter: 15.0% 11.8% 1.5%
x264 [info]: i16 v,h,dc,p: 16% 15% 8% 62%
x264 [info]: i8 v,h,dc,ddl,ddr,vr,hd,vl,hu: 10% 11% 5% 9% 13% 12% 14% 12% 14%
x264 [info]: i4 v,h,dc,ddl,ddr,vr,hd,vl,hu: 9% 9% 3% 10% 16% 13% 15% 11% 14%
x264 [info]: i8c dc,h,v,p: 37% 28% 19% 16%
x264 [info]: Weighted P-Frames: Y:4.8% UV:2.2%
x264 [info]: ref P L0: 50.5% 8.0% 17.3% 6.7% 5.2% 3.8% 3.3% 1.8% 1.7% 1.6% 0.1% 0.0%
x264 [info]: ref B L0: 77.9% 10.3% 4.7% 2.5% 1.5% 1.2% 1.1% 0.5% 0.3%
x264 [info]: ref B L1: 95.1% 4.9%
x264 [info]: kb/s:1322.54

Скриншоты

с названием

[Profile]  [PM] 
Display posts:    
Reply to topic

Current time is: 01-Dec 04:47

All times are UTC + 2



You cannot post new topics in this forum
You cannot reply to topics in this forum
You cannot edit your posts in this forum
You cannot delete your posts in this forum
You cannot vote in polls in this forum
You cannot attach files in this forum
You cannot download files in this forum