Демон внутри / Вскрытие Джейн Доу / The Autopsy of Jane Doe (Андре Овредал / André Øvredal) [2016, Великобритания, ужасы, WEB-DLRip] MVO

Reply to topic
 
Author
Message

Satyr ®

Gender: Unknown

Longevity: 11 years

Posts: 15401

Reputation: 55 [+] [-]

Satyr · Post 14-Feb-2017 14:00

[Quote] 

-Демон внутри / Вскрытие Джейн Доу / The Autopsy of Jane Doe
«Every body has a secret»- -Страна: Великобритания
Жанр: ужасы
Год выпуска: 2016
Продолжительность: 01:26:27-Перевод: Профессиональный (многоголосый закадровый) AlexFilm
Cубтитры: нет
Оригинальная аудиодорожка: нет-Режиссер: Андре Овредал / André Øvredal-В ролях: Эмиль Хирш, Брайан Кокс, Офелия Ловибонд, Майкл МакЭлхаттон, Олуэн Катрин Келли, Паркер Сойерс, Джейн Перри, Ив О’Хара-Описание: Тони, гробовщик маленького городка, получает тело жертвы таинственного убийства — красивой и молодой Джейн Доу, без видимой причины смерти. Он пытается выяснить, кто она и как умерла, обнаруживая все более причудливые подсказки, которые ведут к ужасным тайнам её жизни и смерти.- --Качество видео: WEB-DLRip / WEB-DL 1080p
Формат видео: AVI-Видео: XviD build 67, 704x288 (2.40:1), 23.976 fps, ~1061 kbps avg, 0.218 bit/pixel
Аудио: 48 kHz, MP3, 2/0 (L,R) ch, ~128 kbps avg-

MediaInfo

Complete name : C:\Users\ИВАН\Desktop\Демон внутри (2016) WEB-DLRip_ivanes20031987.avi
Format : AVI
Format/Info : Audio Video Interleave
File size : 741 MiB
Duration : 1 h 26 min
Overall bit rate : 1 199 kb/s
Writing application : VirtualDubMod 1.5.10.3 | www.virtualdub-fr.org || (build 2550/release)
Writing library : VirtualDubMod build 2550/release
Video
ID : 0
Format : MPEG-4 Visual
Format profile : Advanced Simple@L5
Format settings, BVOP : 1
Format settings, QPel : No
Format settings, GMC : No warppoints
Format settings, Matrix : Custom
Codec ID : XVID
Codec ID/Hint : XviD
Duration : 1 h 26 min
Bit rate : 1 061 kb/s
Width : 704 pixels
Height : 288 pixels
Display aspect ratio : 2.40:1
Frame rate : 23.976 (24000/1001) FPS
Color space : YUV
Chroma subsampling : 4:2:0
Bit depth : 8 bits
Scan type : Progressive
Compression mode : Lossy
Bits/(Pixel*Frame) : 0.218
Stream size : 656 MiB (89%)
Writing library : XviD 67
Audio
ID : 1
Format : MPEG Audio
Format version : Version 1
Format profile : Layer 3
Mode : Joint stereo
Mode extension : MS Stereo
Codec ID : 55
Codec ID/Hint : MP3
Duration : 1 h 26 min
Bit rate mode : Constant
Bit rate : 128 kb/s
Channel(s) : 2 channels
Sampling rate : 48.0 kHz
Compression mode : Lossy
Stream size : 79.2 MiB (11%)
Alignment : Aligned on interleaves
Interleave, duration : 42 ms (1.00 video frame)
Interleave, preload duratio : 504 ms
Writing library : LAME3.99r
Encoding settings : -m j -V 4 -q 2 -lowpass 17 -b 128

Скриншот c названием фильма

Скриншоты

[Profile]  [PM] 
Display posts:    
Reply to topic

Current time is: 28-Nov 10:13

All times are UTC + 2



You cannot post new topics in this forum
You cannot reply to topics in this forum
You cannot edit your posts in this forum
You cannot delete your posts in this forum
You cannot vote in polls in this forum
You cannot attach files in this forum
You cannot download files in this forum