Полицейский 2000 года / TC 2000 (Т.Дж. Скотт / T.J. Scott) [1993, Канада, США, фантастика, боевик, BDRemux 1080p] DVO (Ракурс / Екатеринбург Арт) + AVO (Андрей Гаврилов) + AVO (Леонид Володарский) + Sub Ger + Original Eng

Reply to topic
 
Author
Message

Faust ®

Gender: Unknown

Longevity: 9 years 9 months

Posts: 15495

Reputation: 0 [+] [-]

Faust · Post 14-Feb-2017 18:05

[Quote] 

Полицейский 2000 года / TC 2000
Страна: Канада, США
Жанр: фантастика, боевик
Год выпуска: 1993
Продолжительность: 01:34:48
-
Перевод 1: Профессиональный (двухголосый закадровый) Ракурс / Екатеринбург Арт
Перевод 2: Авторский (одноголосый закадровый) Андрей Гаврилов
Перевод 3: Авторский (одноголосый закадровый) Леонид Володарский
Cубтитры: немецкие
Оригинальная аудиодорожка: английский
-
Режиссер: Т.Дж. Скотт / T.J. Scott
В ролях: Боло Йенг, Джалал Мерхи, Билли Блэнкс, Бобби Филлипс, Маттиас Хьюз, Келли Галлант, Гарри Мок, Рамсей Смит, Грегори Филпот, М.Дж. Кенг
-
Описание: Напарницу полицейского Джейсона Сторма, Зои, погибшую во время патрулирования выходов из подземного, обустроенного мира на мало пригодную для жизни поверхность Земли, превращают в абсолютно неуязвимого киборга-убийцу.Джейсон узнает, что Зои запрограммирована взорвать бездействующую атомную станцию. Шеф полиции, возжелавший управлять всем миром, готов уничтожить вместе с преступниками все население Северной Америки. Для того, чтобы предотвратить катастрофу, Джейсон объединяет усилия с самым грозным и уважаемым боевиком одной из группировок, Сумаем…
-

-
Сэмпл: http://sendfile.su/1308210
-
Тип релиза: BDRemux 1080p
Контейнер: MKV
Видео: MPEG-4 AVC, 1920x1080p (16:9), 23.976 fps, 19981 kbps
Аудио 1: русский / AC3 / 2.0 / 48 kHz / 192 kbps / 16 bit || DVO Ракурс / Екатеринбург Арт
Аудио 2: русский / AC3 / 2.0 / 48 kHz / 192 kbps / 16 bit || AVO Андрей Гаврилов
Аудио 3: русский / AC3 / 2.0 / 48 kHz / 192 kbps / 16 bit || AVO Леонид Володарский
Аудио 4: английский / DTS-HD MA / 2.0 / 48 kHz / 1109 kbps / 16 bit || (DTS Core: 2.0, 48 kHz, 768 kbps, 16-bit) || ENG
Формат субтитров: softsub (SRT)
Главы: есть

MediaInfo

General
Unique ID : 245685920887983580400013930420979511917 (0xB8D5631F3A60F47EB7B4B80BDFCE326D)
Complete name : C:\Users\ALEX\Desktop\Фильмы\HD\TC 2000.1993.BDRemux.1080p.3xRus.Eng.Sub.Chpt.mkv
Format : Matroska
Format version : Version 4 / Version 2
File size : 14.3 GiB
Duration : 1 h 34 min
Overall bit rate mode : Variable
Overall bit rate : 21.7 Mb/s
Movie name : TC 2000.BDRemux
Encoded date : UTC 2017-02-12 14:54:09
Writing application : mkvmerge v8.5.2 ('Crosses') 64bit
Writing library : libebml v1.3.3 + libmatroska v1.4.4
Video
ID : 1
Format : AVC
Format/Info : Advanced Video Codec
Format profile : High@L4.1
Format settings, CABAC : Yes
Format settings, ReFrames : 4 frames
Format settings, GOP : M=3, N=24
Codec ID : V_MPEG4/ISO/AVC
Duration : 1 h 34 min
Bit rate mode : Variable
Bit rate : 20.0 Mb/s
Maximum bit rate : 35.0 Mb/s
Width : 1 920 pixels
Height : 1 080 pixels
Display aspect ratio : 16:9
Frame rate mode : Constant
Frame rate : 23.976 (24000/1001) FPS
Standard : NTSC
Color space : YUV
Chroma subsampling : 4:2:0
Bit depth : 8 bits
Scan type : Progressive
Bits/(Pixel*Frame) : 0.402
Stream size : 13.2 GiB (92%)
Title : TC 2000.BDRemux
Default : Yes
Forced : No
Color range : Limited
Color primaries : BT.709
Transfer characteristics : BT.709
Matrix coefficients : BT.709
Audio #1
ID : 2
Format : AC-3
Format/Info : Audio Coding 3
Mode extension : CM (complete main)
Format settings, Endianness : Big
Codec ID : A_AC3
Duration : 1 h 34 min
Bit rate mode : Constant
Bit rate : 192 kb/s
Channel(s) : 2 channels
Channel positions : Front: L R
Sampling rate : 48.0 kHz
Frame rate : 31.250 FPS (1536 spf)
Compression mode : Lossy
Stream size : 130 MiB (1%)
Title : DVO (Ракурс, Екатеринбург Арт)
Language : Russian
Default : Yes
Forced : No
Audio #2
ID : 3
Format : AC-3
Format/Info : Audio Coding 3
Mode extension : CM (complete main)
Format settings, Endianness : Big
Codec ID : A_AC3
Duration : 1 h 34 min
Bit rate mode : Constant
Bit rate : 192 kb/s
Channel(s) : 2 channels
Channel positions : Front: L R
Sampling rate : 48.0 kHz
Frame rate : 31.250 FPS (1536 spf)
Compression mode : Lossy
Stream size : 130 MiB (1%)
Title : AVO (Андрей Гаврилов)
Language : Russian
Default : No
Forced : No
Audio #3
ID : 4
Format : AC-3
Format/Info : Audio Coding 3
Mode extension : CM (complete main)
Format settings, Endianness : Big
Codec ID : A_AC3
Duration : 1 h 34 min
Bit rate mode : Constant
Bit rate : 192 kb/s
Channel(s) : 2 channels
Channel positions : Front: L R
Sampling rate : 48.0 kHz
Frame rate : 31.250 FPS (1536 spf)
Compression mode : Lossy
Stream size : 130 MiB (1%)
Title : AVO (Леонид Володарский)
Language : Russian
Default : No
Forced : No
Audio #4
ID : 5
Format : DTS
Format/Info : Digital Theater Systems
Format profile : MA / Core
Mode : 16
Format settings, Endianness : Big
Codec ID : A_DTS
Duration : 1 h 34 min
Bit rate mode : Variable / Constant
Bit rate : 1 109 kb/s / 768 kb/s
Channel(s) : 2 channels
Channel positions : Front: L R
Sampling rate : 48.0 kHz
Frame rate : 93.750 FPS (512 spf)
Bit depth : 16 bits
Compression mode : Lossless / Lossy
Stream size : 752 MiB (5%)
Title : Original
Language : English
Default : No
Forced : No
Text
ID : 6
Format : UTF-8
Codec ID : S_TEXT/UTF8
Codec ID/Info : UTF-8 Plain Text
Duration : 1 h 30 min
Bit rate : 48 b/s
Count of elements : 882
Stream size : 31.8 KiB (0%)
Language : German
Default : No
Forced : No
Menu
00:00:00.000 : en:Chapter 01
00:10:01.559 : en:Chapter 02
00:17:08.069 : en:Chapter 03
00:27:04.665 : en:Chapter 04
00:36:13.004 : en:Chapter 05
00:45:53.583 : en:Chapter 06
00:54:57.419 : en:Chapter 07
01:04:02.088 : en:Chapter 08
01:11:48.470 : en:Chapter 09
01:20:08.595 : en:Chapter 10
01:23:53.487 : en:Chapter 11
01:30:33.928 : en:Chapter 12

Скриншоты

[Profile]  [PM] 
Display posts:    
Reply to topic

Current time is: 23-Jun 08:08

All times are UTC + 2



You cannot post new topics in this forum
You cannot reply to topics in this forum
You cannot edit your posts in this forum
You cannot delete your posts in this forum
You cannot vote in polls in this forum
You cannot attach files in this forum
You cannot download files in this forum