Северный полюс: Открыт на Рождество / Northpole: Open for Christmas (Дуглас Барр / Douglas Barr) [2015, Канада, фэнтези, HDTV 1080i] Dub

Reply to topic
 
Author
Message

Faust ®

Gender: Unknown

Longevity: 9 years 2 months

Posts: 14058

Reputation: 0 [+] [-]

Faust · Post 14-Feb-2017 18:05

[Quote] 

Северный полюс: Открыт на РождествоNorthpole: Open for Christmas
Страна: Канада
Жанр: фэнтези
Год выпуска: 2015
Продолжительность: 01:22:43
-
Перевод: Профессиональный (дублированный)
Cубтитры: нет
Оригинальная аудиодорожка: нет
-
Режиссер: Дуглас Барр / Douglas Barr
В ролях: Лори Лафлин, Бэйли Мэдисон, Дермот Малруни, Paul Stewart, Марсия Беннетт, Ава Телек, Джеймс Томас, Анана Ридвальд, Донован Скотт
-
Описание: Успешная бизнес-леди получает в наследство гостиницу её тёти и решает вернуть ей былую славу, но всего лишь для того, чтобы продать её прямо перед Рождеством.
>>> Собственная запись со спутника Eutelsat 36A/36B (36°E) | TV1000 Premium HD (эфир 12.02.2017г.)

Тип релиза: HDTV 1080i
Контейнер: MKV
Видео: MPEG-4 AVC / PAL 16:9 / 1920x1080 (1,78:1) / 5650 kbps / 25,000 fps / 0.054 bit/pixel / High@L4
Аудио: Russian / Dolby Digital Audio / 5.1 Ch / 48 kHz / 384 kbps / 16 bit | DUB
Навигация по главам: есть

MediaInfo

Общее
Уникальный идентификатор                 : 195175017513025718953737650717892683329 (0x92D5574FDEA084AF93F85C01D9522641)
Полное имя                               : F:\Northpole Open for Christmas 2015 1080i HDTV MPEG4 DD5.1\Northpole Open for Christmas 2015 1080i HDTV MPEG4 DD5.1.mkv
Формат                                   : Matroska
Версия формата                           : Version 4 / Version 2
Размер файла                             : 3,49 Гбайт
Продолжительность                        : 1 ч. 22 м.
Общий поток                              : 6041 Кбит/сек
Название фильма                          : Release for RuTracker © flaSI-I
Дата кодирования                         : UTC 2017-02-12 10:21:31
Программа кодирования                    : mkvmerge v9.8.0 ('Kuglblids') 64bit
Библиотека кодирования                   : libebml v1.3.4 + libmatroska v1.4.5
Видео
Идентификатор                            : 1
Формат                                   : AVC
Формат/Информация                        : Advanced Video Codec
Профиль формата                          : High@L4
Параметр CABAC формата                   : Да
Параметр ReFrames формата                : 4 кадра
Идентификатор кодека                     : V_MPEG4/ISO/AVC
Продолжительность                        : 1 ч. 22 м.
Битрейт                                  : 5650 Кбит/сек
Ширина                                   : 1920 пикселей
Высота                                   : 1080 пикселей
Соотношение сторон                       : 16:9
Режим частоты кадров                     : Переменный
Частота кадров                           : 50,000 кадров/сек
Частота кадров в оригинале               : 25,000 кадров/сек
Стандарт вещания                         : Component
Цветовое пространство                    : YUV
Субдискретизация насыщенности            : 4:2:0
Битовая глубина                          : 8 бит
Тип развёртки                            : Чересстрочная
Метод сохранения типа развёртки          : Раздельные поля
Порядок развёртки                        : Верхнее поле первое
Бит/(Пиксели*Кадры)                      : 0.054
Размер потока                            : 3,26 Гбайт (94%)
Язык                                     : English
Default                                  : Да
Forced                                   : Нет
Цветовой диапазон                        : Limited
Основные цвета                           : BT.709
Характеристики трансфера                 : BT.709
Коэффициенты матрицы                     : BT.709
Аудио
Идентификатор                            : 2
Формат                                   : AC-3
Формат/Информация                        : Audio Coding 3
Расширение режима                        : CM (complete main)
Параметр Endianness формата              : Big
Идентификатор кодека                     : A_AC3
Продолжительность                        : 1 ч. 22 м.
Вид битрейта                             : Постоянный
Битрейт                                  : 384 Кбит/сек
Каналы                                   : 6 каналов
Расположение каналов                     : Front: L C R, Side: L R, LFE
Частота                                  : 48,0 КГц
Частота кадров                           : 31,250 кадров/сек (1536 spf)
Битовая глубина                          : 16 бит
Метод сжатия                             : С потерями
Размер потока                            : 227 Мбайт (6%)
Заголовок                                : Дублированный
Язык                                     : Russian
Default                                  : Да
Forced                                   : Нет
Меню
00:00:00.000                             : de:
00:01:49.526                             : de:
00:03:46.351                             : de:
00:07:40.877                             : de:
00:10:20.453                             : de:
00:12:22.783                             : de:
00:15:09.700                             : de:
00:16:13.639                             : de:
00:18:06.043                             : de:
00:20:28.602                             : de:
00:25:18.058                             : de:
00:27:38.490                             : de:
00:31:48.823                             : de:
00:33:59.704                             : de:
00:36:31.397                             : de:
00:38:19.672                             : de:
00:42:30.047                             : de:
00:43:46.081                             : de:
00:45:51.540                             : de:
00:46:59.608                             : de:
00:50:08.588                             : de:
00:52:52.627                             : de:
00:56:25.673                             : de:
00:58:28.880                             : de:
01:01:59.298                             : de:
01:04:30.491                             : de:
01:06:21.727                             : de:
01:07:40.431                             : de:
01:10:13.667                             : de:
01:12:47.404                             : de:
01:14:25.210                             : de:

Скриншоты

-

-
Сообщения из этой темы [1 шт.] были выделены в отдельную тему T770 [id: 35784620] (0)
xfiles
[Profile]  [PM] 
Display posts:    
Reply to topic

Current time is: 28-Nov 19:32

All times are UTC + 2



You cannot post new topics in this forum
You cannot reply to topics in this forum
You cannot edit your posts in this forum
You cannot delete your posts in this forum
You cannot vote in polls in this forum
You cannot attach files in this forum
You cannot download files in this forum