Луна 44 / Moon 44 (Роланд Эммерих / Roland Emmerich) [1990, Германия (ФРГ), фантастика, боевик, триллер, BDRemux 1080p] Dub (Советский дубляж) + 4х MVO (CP Digital, Первый канал, Нева-1, ТВЦ) + Ukr + Sub Rus, Eng + Original Eng

Reply to topic
 
Author
Message

Faust ®

Gender: Unknown

Longevity: 9 years 2 months

Posts: 14058

Reputation: 0 [+] [-]

Faust · Post 14-Feb-2017 18:05

[Quote] 

Луна 44 / Moon 44
Страна: Германия (ФРГ)
Жанр: фантастика, боевик, триллер
Год выпуска: 1990
Продолжительность: 01:39:18
-
Перевод 1: Профессиональный (дублированный) Советский дубляж
Перевод 2: Профессиональный (многоголосый закадровый) CP Digital
Перевод 3: Профессиональный (многоголосый закадровый) Первый канал
Перевод 4: Профессиональный (многоголосый закадровый) Нева-1
Перевод 5: Профессиональный (многоголосый закадровый) ТВЦ
Cубтитры: русские и английские (полные)
Оригинальная аудиодорожка: английский
-
Режиссер: Роланд Эммерих / Roland Emmerich
В ролях: Майкл Паре, Лиза Айкхорн, Дин Девлин, Брайан Томпсон, Малкольм МакДауэлл, Стивен Джеффрис, Леон Риппи, Йохен Никель, Мехмет Йилмаз, Джон Марч
-
Описание: Галактическая Горнодобывающая Корпорация получает информацию о том, что их роботы похищаются с Луны-44, и отправляет на станцию детектива Стоуна для расследования. Стоун вынужден действовать под прикрытием в качестве одного из заключенных, которых отправляют на Луну 44, чтобы пилотировать специальные вертолеты.Но он не знает, что командир станции майор Ли проинструктирован — в случае нападения на Луну-44 пожертвовать людьми ради спасения роботов. И когда детектив выслеживает предателей, ему приходится сражаться на два фронта, пытаясь спасти и людей, и роботов от уничтожения.
-

-
Сэмпл: http://sendfile.su/1308071
-
Тип релиза: BDRemux 1080p
Контейнер: MKV
Видео: MPEG-4 AVC, 1920x1080p (16:9), 24.000 fps, 21993 kbps
Аудио 1: русский / AC3 / 2.0 / 48 kHz / 192 kbps / 16 bit || DUB - Советский дубляж
Аудио 2: русский / DTS-HD MA / 2.0 / 48 kHz / 1798 kbps / 24 bit || (DTS Core: 2.0, 48 kHz, 768 kbps, 24-bit) || MVO - CP Digital
Аудио 3: русский / AC3 / 2.0 / 48 kHz / 192 kbps / 16 bit || MVO - Первый канал
Аудио 4: русский / AC3 / 2.0 / 48 kHz / 192 kbps / 16 bit || MVO - Нева-1
Аудио 5: русский / AC3 / 2.0 / 48 kHz / 192 kbps / 16 bit || MVO - ТВЦ
Аудио 6: украинский / AC3 / 2.0 / 48 kHz / 192 kbps / 16 bit || DVO - Т/к 2+2
Аудио 7: английский / DTS-HD MA / 2.0 / 48 kHz / 1729 kbps / 24 bit || (DTS Core: 2.0, 48 kHz, 768 kbps, 24-bit) || ENG
Формат субтитров: softsub (SRT)
Главы: есть

MediaInfo

General
Unique ID : 175183972891746223032925500761675143151 (0x83CB34B6F833A2BE8DCDE5CF86E017EF)
Complete name : C:\Users\ALEX\Desktop\Фильмы\HD\Moon 44.1990.BDRemux.1080p.5xRus.Ukr.Eng.Subs.Chpt.mkv
Format : Matroska
Format version : Version 4 / Version 2
File size : 18.4 GiB
Duration : 1 h 39 min
Overall bit rate mode : Variable
Overall bit rate : 26.5 Mb/s
Movie name : Moon 44.BDRemux
Encoded date : UTC 2017-02-12 06:38:36
Writing application : mkvmerge v8.5.2 ('Crosses') 64bit
Writing library : libebml v1.3.3 + libmatroska v1.4.4
Video
ID : 1
Format : AVC
Format/Info : Advanced Video Codec
Format profile : High@L4.1
Format settings, CABAC : Yes
Format settings, ReFrames : 4 frames
Codec ID : V_MPEG4/ISO/AVC
Duration : 1 h 39 min
Bit rate mode : Variable
Bit rate : 22.0 Mb/s
Maximum bit rate : 32.0 Mb/s
Width : 1 920 pixels
Height : 1 080 pixels
Display aspect ratio : 16:9
Frame rate mode : Constant
Frame rate : 24.000 FPS
Color space : YUV
Chroma subsampling : 4:2:0
Bit depth : 8 bits
Scan type : Progressive
Bits/(Pixel*Frame) : 0.441
Stream size : 15.2 GiB (83%)
Title : Moon 44.BDRemux
Default : Yes
Forced : No
Color range : Limited
Color primaries : BT.709
Transfer characteristics : BT.709
Matrix coefficients : BT.709
Audio #1
ID : 2
Format : AC-3
Format/Info : Audio Coding 3
Mode extension : CM (complete main)
Format settings, Endianness : Big
Codec ID : A_AC3
Duration : 1 h 39 min
Bit rate mode : Constant
Bit rate : 192 kb/s
Channel(s) : 2 channels
Channel positions : Front: L R
Sampling rate : 48.0 kHz
Frame rate : 31.250 FPS (1536 spf)
Compression mode : Lossy
Stream size : 136 MiB (1%)
Title : Советский дубляж (Мосфильм)
Language : Russian
Default : Yes
Forced : No
Audio #2
ID : 3
Format : DTS
Format/Info : Digital Theater Systems
Format profile : MA / Core
Mode : 16
Format settings, Endianness : Big
Codec ID : A_DTS
Duration : 1 h 39 min
Bit rate mode : Variable / Constant
Bit rate : 1 798 kb/s / 768 kb/s
Channel(s) : 2 channels
Channel positions : Front: L R
Sampling rate : 48.0 kHz
Frame rate : 93.750 FPS (512 spf)
Bit depth : 24 bits
Compression mode : Lossless / Lossy
Stream size : 1.25 GiB (7%)
Title : MVO (CP Digital)
Language : Russian
Default : No
Forced : No
Audio #3
ID : 4
Format : AC-3
Format/Info : Audio Coding 3
Mode extension : CM (complete main)
Format settings, Endianness : Big
Codec ID : A_AC3
Duration : 1 h 39 min
Bit rate mode : Constant
Bit rate : 192 kb/s
Channel(s) : 2 channels
Channel positions : Front: L R
Sampling rate : 48.0 kHz
Frame rate : 31.250 FPS (1536 spf)
Compression mode : Lossy
Stream size : 136 MiB (1%)
Title : MVO (Первый канал)
Language : Russian
Default : No
Forced : No
Audio #4
ID : 5
Format : AC-3
Format/Info : Audio Coding 3
Mode extension : CM (complete main)
Format settings, Endianness : Big
Codec ID : A_AC3
Duration : 1 h 39 min
Bit rate mode : Constant
Bit rate : 192 kb/s
Channel(s) : 2 channels
Channel positions : Front: L R
Sampling rate : 48.0 kHz
Frame rate : 31.250 FPS (1536 spf)
Compression mode : Lossy
Stream size : 136 MiB (1%)
Title : MVO (Нева-1)
Language : Russian
Default : No
Forced : No
Audio #5
ID : 6
Format : AC-3
Format/Info : Audio Coding 3
Mode extension : CM (complete main)
Format settings, Endianness : Big
Codec ID : A_AC3
Duration : 1 h 39 min
Bit rate mode : Constant
Bit rate : 192 kb/s
Channel(s) : 2 channels
Channel positions : Front: L R
Sampling rate : 48.0 kHz
Frame rate : 31.250 FPS (1536 spf)
Compression mode : Lossy
Stream size : 136 MiB (1%)
Title : MVO (ТВЦ)
Language : Russian
Default : No
Forced : No
Audio #6
ID : 7
Format : AC-3
Format/Info : Audio Coding 3
Mode extension : CM (complete main)
Format settings, Endianness : Big
Codec ID : A_AC3
Duration : 1 h 39 min
Bit rate mode : Constant
Bit rate : 192 kb/s
Channel(s) : 2 channels
Channel positions : Front: L R
Sampling rate : 48.0 kHz
Frame rate : 31.250 FPS (1536 spf)
Compression mode : Lossy
Stream size : 136 MiB (1%)
Title : DVO (2+2)
Language : Ukrainian
Default : No
Forced : No
Audio #7
ID : 8
Format : DTS
Format/Info : Digital Theater Systems
Format profile : MA / Core
Mode : 16
Format settings, Endianness : Big
Codec ID : A_DTS
Duration : 1 h 39 min
Bit rate mode : Variable / Constant
Bit rate : 1 729 kb/s / 768 kb/s
Channel(s) : 2 channels
Channel positions : / Front: L R
Sampling rate : 48.0 kHz
Frame rate : 93.750 FPS (512 spf)
Bit depth : 24 bits
Compression mode : Lossless / Lossy
Stream size : 1.20 GiB (7%)
Title : Original
Language : English
Default : No
Forced : No
Text #1
ID : 9
Format : UTF-8
Codec ID : S_TEXT/UTF8
Codec ID/Info : UTF-8 Plain Text
Duration : 1 h 35 min
Bit rate : 71 b/s
Count of elements : 985
Stream size : 49.9 KiB (0%)
Title : Full
Language : Russian
Default : No
Forced : No
Text #2
ID : 10
Format : UTF-8
Codec ID : S_TEXT/UTF8
Codec ID/Info : UTF-8 Plain Text
Duration : 1 h 33 min
Bit rate : 49 b/s
Count of elements : 894
Stream size : 33.7 KiB (0%)
Title : Full
Language : English
Default : No
Forced : No
Menu
00:00:00.000 : en:00:00:00.000
00:05:45.292 : en:00:05:45.292
00:11:09.708 : en:00:11:09.708
00:14:59.000 : en:00:14:59.000
00:21:13.250 : en:00:21:13.250
00:24:47.917 : en:00:24:47.917
00:30:05.417 : en:00:30:05.417
00:37:56.417 : en:00:37:56.417
00:42:54.417 : en:00:42:54.417
00:46:18.375 : en:00:46:18.375
00:53:50.958 : en:00:53:50.958
01:00:58.583 : en:01:00:58.583
01:07:23.625 : en:01:07:23.625
01:13:34.125 : en:01:13:34.125
01:16:26.000 : en:01:16:26.000
01:23:39.375 : en:01:23:39.375
01:33:21.292 : en:01:33:21.292
01:35:46.833 : en:01:35:46.833

Скриншоты

[Profile]  [PM] 
Display posts:    
Reply to topic

Current time is: 28-Nov 10:38

All times are UTC + 2



You cannot post new topics in this forum
You cannot reply to topics in this forum
You cannot edit your posts in this forum
You cannot delete your posts in this forum
You cannot vote in polls in this forum
You cannot attach files in this forum
You cannot download files in this forum