Наш бренд - кризис / Our Brand Is Crisis (Дэвид Гордон Грин / David Gordon Green) [2015, США, драма, комедия, HDTV 1080i] Dub (SDI Media)

Reply to topic
 
Author
Message

Faust ®

Gender: Unknown

Longevity: 9 years 2 months

Posts: 14058

Reputation: 0 [+] [-]

Faust · Post 14-Feb-2017 18:05

[Quote] 

Наш бренд - кризис | Our Brand Is Crisis«May the best campaign win»
Страна: США
Жанр: драма, комедия
Год выпуска: 2015
Продолжительность: 01:42:58
-
Перевод: Профессиональный (дублированный) SDI Media
Cубтитры: нет
Оригинальная аудиодорожка: нет
-
Режиссер: Дэвид Гордон Грин / David Gordon Green
В ролях: Сандра Буллок, Билли Боб Торнтон, Энтони Маки, Жоаким ди Алмейда, Энн Дауд, Скут МакНэри, Зои Казан, Стивен Флорес, Рейнальдо Пачеко, Луис Арселла
-
Описание: В 2002 году боливийский политик Педро Галло нанимает команду высокооплачиваемых политтехнологов из фирмы Greenberg Quinlan Rosner, чтобы те помогли ему прийти к победе на президентских выборах. Консультанты, возглавившие предвыборный штаб, успешно применили в Боливии американские методы ведения предвыборной гонки, что позволило Галло одержать победу над его основным соперником - Виктором Ривьерой.

>>> Собственная запись со спутника Eutelsat 36A/36B (36°E) | TV1000 Premium HD (эфир 12.02.2017г.)
Тип релиза: HDTV 1080i
Контейнер: MKV
Видео: MPEG-4 AVC / PAL 16:9 / 1920x1080 (1,78:1) / 6799 kbps / 25,000 fps / 0.066 bit/pixel / High@L4
Аудио: Russian / Dolby Digital Audio / 2.0 Ch / 48 kHz / 448 kbps / 16 bit | DUB | SDI Media
Навигация по главам: есть

MediaInfo

Общее
Уникальный идентификатор                 : 194965750628322904615650578163138614457 (0x92AD09A871ACFB03905FF11CE0BCD4B9)
Полное имя                               : F:\Our Brand Is Crisis 2015 1080i HDTV MPEG4 DD2.0\Our Brand Is Crisis 2015 1080i HDTV MPEG4 DD2.0.mkv
Формат                                   : Matroska
Версия формата                           : Version 4 / Version 2
Размер файла                             : 5,22 Гбайт
Продолжительность                        : 1 ч. 42 м.
Общий поток                              : 7250 Кбит/сек
Название фильма                          : Release for RuTracker © flaSI-I
Дата кодирования                         : UTC 2017-02-12 06:27:01
Программа кодирования                    : mkvmerge v9.8.0 ('Kuglblids') 64bit
Библиотека кодирования                   : libebml v1.3.4 + libmatroska v1.4.5
Видео
Идентификатор                            : 1
Формат                                   : AVC
Формат/Информация                        : Advanced Video Codec
Профиль формата                          : High@L4
Параметр CABAC формата                   : Да
Параметр ReFrames формата                : 4 кадра
Параметр GOP формата                     : M=4, N=28
Идентификатор кодека                     : V_MPEG4/ISO/AVC
Продолжительность                        : 1 ч. 42 м.
Битрейт                                  : 6799 Кбит/сек
Ширина                                   : 1920 пикселей
Высота                                   : 1080 пикселей
Соотношение сторон                       : 16:9
Режим частоты кадров                     : Переменный
Частота кадров                           : 50,000 кадров/сек
Частота кадров в оригинале               : 25,000 кадров/сек
Стандарт вещания                         : Component
Цветовое пространство                    : YUV
Субдискретизация насыщенности            : 4:2:0
Битовая глубина                          : 8 бит
Тип развёртки                            : Чересстрочная
Метод сохранения типа развёртки          : Раздельные поля
Порядок развёртки                        : Верхнее поле первое
Бит/(Пиксели*Кадры)                      : 0.066
Размер потока                            : 4,89 Гбайт (94%)
Язык                                     : English
Default                                  : Да
Forced                                   : Нет
Цветовой диапазон                        : Limited
Основные цвета                           : BT.709
Характеристики трансфера                 : BT.709
Коэффициенты матрицы                     : BT.709
Аудио
Идентификатор                            : 2
Формат                                   : AC-3
Формат/Информация                        : Audio Coding 3
Расширение режима                        : CM (complete main)
Параметр Endianness формата              : Big
Идентификатор кодека                     : A_AC3
Продолжительность                        : 1 ч. 42 м.
Вид битрейта                             : Постоянный
Битрейт                                  : 448 Кбит/сек
Каналы                                   : 2 канала
Расположение каналов                     : Front: L R
Частота                                  : 48,0 КГц
Частота кадров                           : 31,250 кадров/сек (1536 spf)
Битовая глубина                          : 16 бит
Метод сжатия                             : С потерями
Размер потока                            : 330 Мбайт (6%)
Заголовок                                : Дублированный | SDI Media | 2016
Язык                                     : Russian
Default                                  : Да
Forced                                   : Нет
Меню
00:00:00.000                             : en:Chapter 1
00:10:17.325                             : en:Chapter 2
00:19:28.876                             : en:Chapter 3
00:27:24.017                             : en:Chapter 4
00:39:09.722                             : en:Chapter 5
00:49:43.271                             : en:Chapter 6
00:59:40.285                             : en:Chapter 7
01:11:33.205                             : en:Chapter 8
01:22:37.202                             : en:Chapter 9
01:29:39.165                             : en:Chapter 10
01:32:20.284                             : en:Chapter 11
01:39:43.978                             : en:Chapter 12

Скриншоты

-
[Profile]  [PM] 
Display posts:    
Reply to topic

Current time is: 28-Nov 10:38

All times are UTC + 2



You cannot post new topics in this forum
You cannot reply to topics in this forum
You cannot edit your posts in this forum
You cannot delete your posts in this forum
You cannot vote in polls in this forum
You cannot attach files in this forum
You cannot download files in this forum