Пираты Карибского моря: Проклятие Чёрной жемчужины / Pirates of the Caribbean: The Curse of the Black Pearl (Гор Вербински / Gore Verbinski) [2003, США, приключения, WEBRip] [Open Matte] Dub + DVO (Гланц и Королёва) + AVO (Гаврилов) + Original Eng

Reply to topic
 
Author
Message

Wolf ®

Gender: Unknown

Longevity: 11 years

Posts: 2860

Reputation: 0 [+] [-]

Wolf · Post 15-Feb-2017 02:15

[Quote] 

Пираты Карибского моря: Проклятие Чёрной жемчужины / Pirates of the Caribbean: The Curse of the Black Pearl / Open Matte
Страна: США
Жанр: фэнтези, боевик, приключения
Год выпуска: 2003
Продолжительность: 02:23:15
Перевод: Профессиональный (дублированный)
Перевод 2: Профессиональный (двухголосый закадровый) Гланц и Королёва
Перевод 3: Авторский (одноголосый закадровый) Гаврилов
Оригинальная аудиодорожка: английский
Режиссер: Гор Вербински / Gore Verbinski
В ролях: Джонни Депп, Джеффри Раш, Орландо Блум, Кира Найтли, Джек Девенпорт, Кевин МакНэлли, Джонатан Прайс, Ли Аренберг, Макензи Крук, Дэвид Бэйли
Описание: Жизнь харизматичного авантюриста, капитана Джека Воробья, полная увлекательных приключений, резко меняется, когда его заклятый враг - капитан Барбосса - похищает корабль Джека, Черную Жемчужину, а затем нападает на Порт Ройал и крадет прекрасную дочь губернатора, Элизабет Свонн.
Друг детства Элизабет, Уилл Тернер, вместе с Джеком возглавляет спасательную экспедицию на самом быстром корабле Британии, в попытке вызволить девушку из плена и заодно отобрать у злодея Черную Жемчужину. Вслед за этой парочкой отправляется амбициозный коммодор Норрингтон, который к тому же числится женихом Элизабет.
Однако Уилл не знает, что над Барбоссой висит вечное проклятие, при лунном свете превращающее его с командой в живых скелетов. Проклятье будет снято лишь тогда, когда украденное золото Ацтеков будет возвращено пиратами на старое место.
Доп. информация: Локализованный видеоряд. Запись с онлайн-кинотеатра
Различия BD и WEB-DL - разное наполнение кадра - 16:9 (1.78:1) -> http://screenshotcomparison.com/comparison/196428
Сравнение с HDTVRip -> http://screenshotcomparison.com/comparison/196429
Фильмы в Fullscreen (4:3) и Open Matte (16:9) форматах
Сэмпл: https://m.sendspace.com/file/yiq42o
Качество видео: WEBRip [Pirates of the Caribbean The Curse of the Black Pearl (2003) WEB-DL 1080p [Open Matte] -BLUEBIRD]
Формат видео: AVI
Видео: XviD / 2372 kbps / 704x400 / 23.976 fps
Аудио: DUB (Rus) / AC3 / 6 ch / 448 kbps / 48 kHz
Аудио 2: DVO Гланц и Королёва (Rus) / AC3 / 6 ch / 448 kbps / 48 kHz - отдельно
Аудио 3: AVO Гаврилов (Rus) / AC3 / 6 ch / 448 kbps / 48 kHz - отдельно
Аудио 4: Original (Eng) / AC3 / 6 ch / 448 kbps / 48 kHz - отдельно

MediaInfo

General
Complete name : J:\Torrents\Готовые релизы\Пираты Карибского моря - Проклятие Чёрной жемчужины (2003) WEB-DLRip [Open Matte]\Пираты Карибского моря - Проклятие Чёрной жемчужины (2003) WEB-DLRip [Open Matte].avi
Format : AVI
Format/Info : Audio Video Interleave
Format profile : OpenDML
File size : 2.83 GiB
Duration : 2h 23mn
Overall bit rate : 2 832 Kbps
Video
ID : 0
Format : MPEG-4 Visual
Format profile : Advanced Simple@L5
Format settings, BVOP : 2
Format settings, QPel : No
Format settings, GMC : No warppoints
Format settings, Matrix : Default (MPEG)
Codec ID : XVID
Codec ID/Hint : XviD
Duration : 2h 23mn
Bit rate : 2 372 Kbps
Width : 704 pixels
Height : 400 pixels
Display aspect ratio : 16:9
Frame rate : 23.976 (23976/1000) fps
Color space : YUV
Chroma subsampling : 4:2:0
Bit depth : 8 bits
Scan type : Progressive
Compression mode : Lossy
Bits/(Pixel*Frame) : 0.351
Stream size : 2.37 GiB (84%)
Writing library : XviD 64
Audio
ID : 1
Format : AC-3
Format/Info : Audio Coding 3
Mode extension : CM (complete main)
Format settings, Endianness : Big
Codec ID : 2000
Duration : 2h 23mn
Bit rate mode : Constant
Bit rate : 448 Kbps
Channel(s) : 6 channels
Channel positions : Front: L C R, Side: L R, LFE
Sampling rate : 48.0 KHz
Frame rate : 31.250 fps (1536 spf)
Compression mode : Lossy
Stream size : 459 MiB (16%)
Alignment : Aligned on interleaves
Interleave, duration : 32 ms (0.77 video frame)

Скриншот c названием фильма

Скриншоты

[Profile]  [PM] 
Display posts:    
Reply to topic

Current time is: 01-Dec 05:11

All times are UTC + 2



You cannot post new topics in this forum
You cannot reply to topics in this forum
You cannot edit your posts in this forum
You cannot delete your posts in this forum
You cannot vote in polls in this forum
You cannot attach files in this forum
You cannot download files in this forum