Музыкальная шкатулка / Music Box (Коста-Гаврас / Costa-Gavras) [1989, США, драма, детектив, BDRip 720p] MVO + Sub Rus, Eng + Original Eng

Reply to topic
 
Author
Message

Faust ®

Gender: Unknown

Longevity: 9 years 2 months

Posts: 14058

Reputation: 0 [+] [-]

Faust · Post 15-Feb-2017 02:15

[Quote] 

Музыкальная шкатулка / Music Box
Страна: США
Студия: Tristar Pictures, Carolco
Жанр: драма, детектив
Год выпуска: 1989
Продолжительность: 02:00:25
Перевод: Профессиональный (многоголосый закадровый)
Перевод 2: Субтитры
Cубтитры: русские, английские
Оригинальная аудиодорожка: английский
Режиссер: Коста-Гаврас / Costa-Gavras
В ролях: Джессика Лэнг, Армин Мюллер-Шталь, Фредерик Форрест, Дональд Моффет, Лукас Хаас, Шерил Линн Брюс, Мари Тёрёчик, Ж.С. Блок, Сол Фридер, Майкл Рукер, Эльжбета Чижевска, Магда Шекли Марбург, Феликс Шуман, Майкл Шилло, Георгий Пусеп, Митчелл Литрофски, Альберт Холл, Нед Шмидтке, Джо Гузальдо, Тибор Кендереши, Кристиана Николя, Кевин С. Уайт, Дьёрдь Эмёд, Ральф Фуди, Магда Засс, Оуэн Райс, Марго Уинклер, Ларри Бранденбург, Полин Канер, Марк Стеггерда, Леонард Э. Босвелл, Дуглас Марцинек, Агнес Галлвиц, Золтан Гера, Джейн Макивер, Меган Уорнер, Эрика Хейт М.Д., Трэйси Грант, Тони Флеминг, Эдвард Блэтчфорд, Энди Авалос, Тим Скиллинг, Том Стьенк, Донез Харрис, Габор Конц, Николас Кристиансон, Ричард Д’Анджело, Джордж Карсон, Роки Финлэй, Марта Шебештьен, Роберт Минкофф, Стивен Розик
Описание: Венгерский иммигрант Майк Лазло арестован по обвинению в пособничестве нацистам во время Второй мировой войны. Лазло угрожают депортацией, и на его защиту встает его дочь, адвокат Энн Тэлбот, уверенная, что отец стал жертвой происков венгерской коммунистической машины. Она не верит в виновность отца до тех пор, пока не собирает внушительные доказательства его коллаборационистской деятельности. Кто теперь Лазло — жертва или палач?
Доп. информация: В найденный в сети рип, содержащий английский оригинал и английские субтитры и сделанный с этого исходника - http://torrentsland.com.ua/forum/viewtopic.php?t=5356460, добавлены русская аудиодорога и русские субтитры из раздачи - http://torrentsland.com.ua/forum/viewtopic.php?t=4429634
Сэмпл: http://multi-up.com/1140396
Тип релиза: BDRip 720p
Контейнер: MKV
Видео: 7323 Кбит/сек, NTSC 1280*544 (2,35:1), 25,000 кадров/сек, AVC
Аудио: Русский, 224 Кбит/сек, 48,0 КГц, 2 канала, AC-3
Аудио 2: Английский, 320 Кбит/сек, 48,0 КГц, 2 канала, AC-3
Формат субтитров: UTF

MediaInfo

ОбщееУникальный идентификатор                 : 244762645675268005989242906674167937342 (0xB8239223B4F7DBFA84E9E2D3D5CDF93E)Полное имя                               : E:\MONAR\Видео\Художественные фильмы\Музыкальная шкатулка (1989).mkvФормат                                   : MatroskaВерсия формата                           : Version 4 / Version 2Размер файла                             : 6,62 ГбайтПродолжительность                        : 2 ч. 0 м.Общий поток                              : 7869 Кбит/секНазвание фильма                          : Costa-Gavras - Music Box (1989)Дата кодирования                         : UTC 2017-02-11 15:17:18Программа кодирования                    : mkvmerge v9.6.0 ('Slave To Your Mind') 64bitБиблиотека кодирования                   : libebml v1.3.4 + libmatroska v1.4.5
ВидеоИдентификатор : 1Формат : AVCФормат/Информация : Advanced Video CodecПрофиль формата : High@L4.1Параметр CABAC формата : ДаПараметр ReFrames формата : 12 кадровИдентификатор кодека : V_MPEG4/ISO/AVCПродолжительность : 2 ч. 0 м.Битрейт : 7323 Кбит/секШирина : 1280 пикселейВысота : 544 пикселяСоотношение сторон : 2,35:1Режим частоты кадров : ПостоянныйЧастота кадров : 25,000 кадров/секЦветовое пространство : YUVСубдискретизация насыщенности : 4:2:0Битовая глубина : 8 битТип развёртки : ПрогрессивнаяБит/(Пиксели*Кадры) : 0.421Размер потока : 6,16 Гбайт (93%)Библиотека кодирования : x264 core 146 r0+2586 e393126 t_mod_Custom [8-bit@all X86_64]Настройки программы : cabac=1 / ref=12 / deblock=1:-3:-3 / analyse=0x3:0x113 / me=umh / subme=10 / psy=1 / fade_compensate=0.00 / psy_rd=1.10:0.00 / mixed_ref=1 / me_range=32 / chroma_me=1 / trellis=2 / 8x8dct=1 / cqm=0 / deadzone=21,11 / fast_pskip=0 / chroma_qp_offset=-2 / threads=12 / lookahead_threads=3 / sliced_threads=0 / nr=0 / decimate=0 / interlaced=0 / bluray_compat=0 / constrained_intra=0 / fgo=0 / bframes=10 / b_pyramid=2 / b_adapt=2 / b_bias=0 / direct=3 / weightb=1 / open_gop=0 / weightp=2 / keyint=250 / keyint_min=25 / scenecut=40 / intra_refresh=0 / rc_lookahead=60 / rc=crf / mbtree=0 / crf=17.8000 / qcomp=0.75 / qpmin=0:0:0 / qpmax=69:69:69 / qpstep=4 / vbv_maxrate=62500 / vbv_bufsize=78125 / crf_max=0.0 / nal_hrd=none / filler=0 / ip_ratio=1.30 / pb_ratio=1.20 / aq=3:0.55 / aq-sensitivity=10.00 / aq-factor=1.00:1.00:1.00 / aq2=1:0.50 / aq2-sensitivity=15.00 / aq2-factor=1.00:1.00:1.00 / aq3=1:[0.45:0.45]:[0.45:0.45]:[0.45:0.45]:[0.45:0.45] / aq3-sensitivity=10.00 / aq3-factor=[1.00:1.00]:[1.00:1.00]:[1.00:1.00] / aq3-boundary=192:64:24Язык : EnglishDefault : ДаForced : НетЦветовой диапазон : LimitedОсновные цвета : BT.709Характеристики трансфера : BT.709Коэффициенты матрицы : BT.709
Аудио #1Идентификатор : 2Формат : AC-3Формат/Информация : Audio Coding 3Расширение режима : CM (complete main)Параметр Endianness формата : BigИдентификатор кодека : A_AC3Продолжительность : 2 ч. 0 м.Вид битрейта : ПостоянныйБитрейт : 224 Кбит/секКаналы : 2 каналаРасположение каналов : Front: L RЧастота : 48,0 КГцЧастота кадров : 31,250 кадров/сек (1536 spf)Битовая глубина : 16 битМетод сжатия : С потерямиРазмер потока : 193 Мбайт (3%)Заголовок : MVOЯзык : RussianDefault : ДаForced : Нет
Аудио #2Идентификатор : 3Формат : AC-3Формат/Информация : Audio Coding 3Профиль формата : Dolby DigitalРасширение режима : CM (complete main)Параметр Endianness формата : BigИдентификатор кодека : A_AC3Продолжительность : 2 ч. 0 м.Вид битрейта : ПостоянныйБитрейт : 320 Кбит/секКаналы : 2 каналаРасположение каналов : Front: L RЧастота : 48,0 КГцЧастота кадров : 31,250 кадров/сек (1536 spf)Битовая глубина : 16 битМетод сжатия : С потерямиРазмер потока : 276 Мбайт (4%)Заголовок : originalЯзык : EnglishDefault : НетForced : Нет
Текст #1Идентификатор : 4Формат : UTF-8Идентификатор кодека : S_TEXT/UTF8Идентификатор кодека/Информация : UTF-8 Plain TextПродолжительность : 1 ч. 56 м.Битрейт : 121 бит/секCount of elements : 1652Размер потока : 103 Кбайт (0%)Заголовок : srtЯзык : RussianDefault : НетForced : Нет
Текст #2Идентификатор : 5Формат : UTF-8Идентификатор кодека : S_TEXT/UTF8Идентификатор кодека/Информация : UTF-8 Plain TextПродолжительность : 1 ч. 52 м.Битрейт : 72 бит/секCount of elements : 1614Размер потока : 60,0 Кбайт (0%)Заголовок : srtЯзык : EnglishDefault : НетForced : Нет
Меню00:00:00.000 : en:00:00:00.00000:11:53.000 : en:00:11:53.00000:22:49.520 : en:00:22:49.52000:38:09.400 : en:00:38:09.40000:47:49.520 : en:00:47:49.52001:02:22.800 : en:01:02:22.80001:15:52.520 : en:01:15:52.52001:28:11.400 : en:01:28:11.40001:39:31.320 : en:01:39:31.32001:48:10.080 : en:01:48:10.08001:56:59.360 : en:01:56:59.360

Скриншоты

[Profile]  [PM] 
Display posts:    
Reply to topic

Current time is: 01-Dec 05:11

All times are UTC + 2



You cannot post new topics in this forum
You cannot reply to topics in this forum
You cannot edit your posts in this forum
You cannot delete your posts in this forum
You cannot vote in polls in this forum
You cannot attach files in this forum
You cannot download files in this forum