Операция "Чудовище" / Операция "Огро" / Operacion Ogro (Джилло Понтекорво / Gillo Pontecorvo) [1979, Италия, Испания, Франция, драма, исторический, BDRemux 1080p] VO (shachter58) + Sub Rus, Eng, Ita + Original Ita

Reply to topic
 
Author
Message

Faust ®

Gender: Unknown

Longevity: 9 years 2 months

Posts: 14058

Reputation: 0 [+] [-]

Faust · Post 15-Feb-2017 18:30

[Quote] 

Операция "Чудовище" / Операция "Огро" / Operacion Ogro
Страна: Италия, Испания, Франция
Студия: Action Film, Sabre Films, Vides Cinematografica
Жанр: драма, исторический
Год выпуска: 1979
Продолжительность: 01:45:29
Перевод: Одноголосый закадровый - shachter58
Перевод 2: Субтитры любительские - Евгений и Елена Феденко
Cубтитры: русские, английские, итальянские
Оригинальная аудиодорожка: итальянский
Режиссер: Джилло Понтекорво / Gillo Pontecorvo
В ролях: Джан Мария Волонте, Анхела Молина, Саверио Маркони, Хосе Сакристан, Эусебио Понсела, Фёдор Аткин, Жорж Стаке, Николь Гарсия, Луис Карреро Бланко, Хосе Мануэль Сервино, Фернандо Чинарро, Эстанис Гонсалес, Рауль Лобо, Аугусто Наварро, Луис Политти, Хосе Луис Перес Рейна, Агапито Ромо, Ана Торрент
Описание: В фильме показывается подготовка и реализация убийства Луиса Карреро Бланко – преемника диктатора Франциско Франко, являвшегося главой фашистского режима в Испании. Фильм основан на реальных событиях, описанных в одноименной книге Хулен Агирре (Евы Форест) – испанской писательницы и публициста, боровшейся за права человека и выступавшей против применения пыток. Название «Operacion Ogro» (операция «Чудовище») было дано плану похищения Карреро Бланко. Но вследствие ряда причин похищение было заменено убийством, которое и состоялось 20 декабря 1973 года. Организаторами и исполнителями этой операции были члены баскской подпольной левонационалистической организации Э.Т.А., боровшейся против фашизма за свободу своей страны и улучшение жизни населения....
Доп. информация: Найденный в сети блюр, содержащий испанский дубляж в двух вариациях и английские субтитры, преобразован в ремукс добавлением синхронизированной Нордером русской аудиодороги с феникслаба, синхронизированной Нордером итальянской аудиодороги из ДВД - http://torrentsland.com.ua/forum/viewtopic.php?t=4941452, а также синхронизированных sovsem-neduhoven русских и итальянских субтитров из той же ДВД-раздачи.
Сэмпл: https://yadi.sk/d/s000MqCo3Dwyp8
Тип релиза: BDRemux 1080p
Контейнер: MKV
Видео: 23000 Кбит/сек, NTSC 1920*1080 (16:9), 24,000 кадра/сек, AVC
Аудио: Русский, 192 Кбит/сек, 48,0 КГц, 2 канала, AC-3
Аудио 2: Итальянский, 448 Кбит/сек, 48,0 КГц, 6 каналов, AC-3
Формат субтитров: UTF

MediaInfo

ОбщееУникальный идентификатор                 : 212411558565562438435081262664471258195 (0x9FCCFA65E93540138C1AD6C3C7FBA453)Полное имя                               : Q:\MONAR\Видео\Художественные фильмы\Зарубежное кино\Операция ''Чудовище'' (1979).mkvФормат                                   : MatroskaВерсия формата                           : Version 4 / Version 2Размер файла                             : 17,4 ГбайтПродолжительность                        : 1 ч. 45 м.Режим общего битрейта                    : ПеременныйОбщий поток                              : 23,7 Мбит/секНазвание фильма                          : Gillo Pontecorvo - Ogro (1979)Дата кодирования                         : UTC 2017-02-14 17:15:20Программа кодирования                    : mkvmerge v9.6.0 ('Slave To Your Mind') 64bitБиблиотека кодирования                   : libebml v1.3.4 + libmatroska v1.4.5
ВидеоИдентификатор : 1Формат : AVCФормат/Информация : Advanced Video CodecПрофиль формата : High@L4.1Параметр CABAC формата : ДаПараметр ReFrames формата : 4 кадраИдентификатор кодека : V_MPEG4/ISO/AVCПродолжительность : 1 ч. 45 м.Вид битрейта : ПеременныйБитрейт : 23,0 Мбит/секМаксимальный битрейт : 28,0 Мбит/секШирина : 1920 пикселейВысота : 1080 пикселейСоотношение сторон : 16:9Режим частоты кадров : ПостоянныйЧастота кадров : 24,000 кадра/секСтандарт вещания : NTSCЦветовое пространство : YUVСубдискретизация насыщенности : 4:2:0Битовая глубина : 8 битТип развёртки : ПрогрессивнаяБит/(Пиксели*Кадры) : 0.463Размер потока : 17,0 Гбайт (97%)Язык : ItalianDefault : ДаForced : НетЦветовой диапазон : LimitedОсновные цвета : BT.709Характеристики трансфера : BT.709Коэффициенты матрицы : BT.709
Аудио #1Идентификатор : 2Формат : AC-3Формат/Информация : Audio Coding 3Расширение режима : CM (complete main)Параметр Endianness формата : BigИдентификатор кодека : A_AC3Продолжительность : 1 ч. 45 м.Вид битрейта : ПостоянныйБитрейт : 192 Кбит/секКаналы : 2 каналаРасположение каналов : Front: L RЧастота : 48,0 КГцЧастота кадров : 31,250 кадров/сек (1536 spf)Битовая глубина : 16 битМетод сжатия : С потерямиРазмер потока : 145 Мбайт (1%)Заголовок : VOЯзык : RussianDefault : ДаForced : Нет
Аудио #2Идентификатор : 3Формат : AC-3Формат/Информация : Audio Coding 3Расширение режима : CM (complete main)Параметр Endianness формата : BigИдентификатор кодека : A_AC3Продолжительность : 1 ч. 45 м.Вид битрейта : ПостоянныйБитрейт : 448 Кбит/секКаналы : 6 каналовРасположение каналов : Front: L C R, Side: L R, LFEЧастота : 48,0 КГцЧастота кадров : 31,250 кадров/сек (1536 spf)Битовая глубина : 16 битМетод сжатия : С потерямиРазмер потока : 338 Мбайт (2%)Заголовок : originalЯзык : ItalianDefault : НетForced : Нет
Текст #1Идентификатор : 4Формат : UTF-8Идентификатор кодека : S_TEXT/UTF8Идентификатор кодека/Информация : UTF-8 Plain TextПродолжительность : 1 ч. 42 м.Битрейт : 63 бит/секCount of elements : 675Размер потока : 47,8 Кбайт (0%)Заголовок : srtЯзык : RussianDefault : НетForced : Нет
Текст #2Идентификатор : 5Формат : UTF-8Идентификатор кодека : S_TEXT/UTF8Идентификатор кодека/Информация : UTF-8 Plain TextПродолжительность : 1 ч. 42 м.Битрейт : 35 бит/секCount of elements : 676Размер потока : 26,4 Кбайт (0%)Заголовок : srtЯзык : EnglishDefault : НетForced : Нет
Текст #3Идентификатор : 6Формат : UTF-8Идентификатор кодека : S_TEXT/UTF8Идентификатор кодека/Информация : UTF-8 Plain TextПродолжительность : 1 ч. 42 м.Битрейт : 36 бит/секCount of elements : 676Размер потока : 27,6 Кбайт (0%)Заголовок : srtЯзык : ItalianDefault : НетForced : Нет
Меню00:00:00.000 : en:00:00:00.00000:08:50.250 : en:00:08:50.25000:16:43.500 : en:00:16:43.50000:24:14.500 : en:00:24:14.50000:33:30.625 : en:00:33:30.62500:41:20.375 : en:00:41:20.37500:51:59.000 : en:00:51:59.00000:59:33.250 : en:00:59:33.25001:09:38.125 : en:01:09:38.12501:20:59.500 : en:01:20:59.50001:30:20.250 : en:01:30:20.25001:39:36.500 : en:01:39:36.50001:44:05.500 : en:01:44:05.500

Скриншоты

14.02.17 Торрент-файл перезалит. По инициативе администратора убраны испанские дубляжи. Сэмпл и отчёт перезалиты.
[Profile]  [PM] 
Display posts:    
Reply to topic

Current time is: 01-Dec 03:38

All times are UTC + 2



You cannot post new topics in this forum
You cannot reply to topics in this forum
You cannot edit your posts in this forum
You cannot delete your posts in this forum
You cannot vote in polls in this forum
You cannot attach files in this forum
You cannot download files in this forum