Пираты Карибского моря: Сундук мертвеца / Pirates of the Caribbean: Dead Man\'s Chest (Гор Вербински / Gore Verbinski) [2006, США, фэнтези, боевик, приключения, WEBRip] [Open Matte] Dub + DVO (Гланц и Королёва) + AVO (Гаврилов) + Original Eng

Reply to topic
 
Author
Message

Advocat ®

Gender: Unknown

Longevity: 11 years

Posts: 2910

Reputation: 0 [+] [-]

Advocat · Post 16-Feb-2017 10:55

[Quote] 

Пираты Карибского моря: Сундук мертвеца / Pirates of the Caribbean: Dead Man's Chest / Open Matte
-1-ая часть | 2-ая часть | 3-ья часть-Страна: США
Жанр: фэнтези, боевик, приключения
Год выпуска: 2006
Продолжительность: 02:30:44
Перевод: Профессиональный (дублированный)
Перевод 2: Профессиональный (двухголосый закадровый) Гланц и Королёва
Перевод 3: Авторский (одноголосый закадровый) Гаврилов
Оригинальная аудиодорожка: английский
Режиссер: Гор Вербински / Gore Verbinski
В ролях: Джонни Депп, Орландо Блум, Кира Найтли, Джек Девенпорт, Билл Найи, Стеллан Скарсгард, Кевин МакНэлли, Ли Аренберг, Макензи Крук, Том Холландер, Александр Баргман, Александр Хомик, Белла Ко, Екатерина Кабашова, Марк Макаренков
Описание: Вновь оказавшись в ирреальном мире, лихой капитан Джек Воробей неожиданно узнает, что является должником легендарного капитана «Летучего Голландца» Дэйви Джонса. Джек должен в кратчайшие сроки решить эту проблему, иначе ему грозит вечное проклятие и рабское существование после смерти. Вдобавок ко всему, срывается свадьба Уилла Тернера и Элизабет Суонн, которые вынуждены составить Джеку компанию в его злоключениях...
Доп. информация: Локализованный видеоряд. Запись с онлайн-кинотеатра
Различия BD и WEB-DL - разное наполнение кадра - 16:9 (1.78:1) -> http://screenshotcomparison.com/comparison/196430
Фильмы в Fullscreen (4:3) и Open Matte (16:9) форматах
Сэмпл: https://m.sendspace.com/file/ees0xz
Качество видео: WEBRip [Pirates of the Caribbean Dead Man's Chest (2006) WEB-DL 1080p [Open Matte] -BLUEBIRD.mkv]
Формат видео: AVI
Видео: XviD / 2324 kbps / 704x400 / 23.976 fps
Аудио: DUB (Rus) / AC3 / 6 ch / 448 kbps / 48 kHz
Аудио 2: DVO Гланц и Королёва (Rus) / AC3 / 6 ch / 448 kbps / 48 kHz - отдельно
Аудио 3: AVO Гаврилов (Rus) / AC3 / 6 ch / 448 kbps / 48 kHz - отдельно
Аудио 4: Original (Eng) / AC3 / 6 ch / 448 kbps / 48 kHz - отдельно

MediaInfo

General
Complete name : J:\Torrents\Готовые релизы\Пираты Карибского моря - Сундук мертвеца (2006) WEB-DLRip [Open Matte]\Пираты Карибского моря - Сундук мертвеца (2006) WEB-DLRip [Open Matte].avi
Format : AVI
Format/Info : Audio Video Interleave
Format profile : OpenDML
File size : 2.93 GiB
Duration : 2h 30mn
Overall bit rate : 2 784 Kbps
Video
ID : 0
Format : MPEG-4 Visual
Format profile : Advanced Simple@L5
Format settings, BVOP : 2
Format settings, QPel : No
Format settings, GMC : No warppoints
Format settings, Matrix : Default (MPEG)
Codec ID : XVID
Codec ID/Hint : XviD
Duration : 2h 30mn
Bit rate : 2 324 Kbps
Width : 704 pixels
Height : 400 pixels
Display aspect ratio : 16:9
Frame rate : 23.976 (23976/1000) fps
Color space : YUV
Chroma subsampling : 4:2:0
Bit depth : 8 bits
Scan type : Progressive
Compression mode : Lossy
Bits/(Pixel*Frame) : 0.344
Stream size : 2.45 GiB (83%)
Writing library : XviD 64
Audio
ID : 1
Format : AC-3
Format/Info : Audio Coding 3
Mode extension : CM (complete main)
Format settings, Endianness : Big
Codec ID : 2000
Duration : 2h 30mn
Bit rate mode : Constant
Bit rate : 448 Kbps
Channel(s) : 6 channels
Channel positions : Front: L C R, Side: L R, LFE
Sampling rate : 48.0 KHz
Frame rate : 31.250 fps (1536 spf)
Compression mode : Lossy
Stream size : 483 MiB (16%)
Alignment : Aligned on interleaves
Interleave, duration : 32 ms (0.77 video frame)

Скриншот c названием фильма

Скриншоты

[Profile]  [PM] 
Display posts:    
Reply to topic

Current time is: 28-Nov 17:59

All times are UTC + 2



You cannot post new topics in this forum
You cannot reply to topics in this forum
You cannot edit your posts in this forum
You cannot delete your posts in this forum
You cannot vote in polls in this forum
You cannot attach files in this forum
You cannot download files in this forum