Особняк с привидениями / Дом с приколами / The Haunted Mansion (Роб Минкофф / Rob Minkoff) [2003, США, Фэнтези, комедия, VHSRip] [Full Screen] Dub (Видеосервис)

Reply to topic
 
Author
Message

Wolf ®

Gender: Unknown

Longevity: 11 years

Posts: 2860

Reputation: 0 [+] [-]

Wolf · Post 16-Feb-2017 10:55

[Quote] 

Особняк с привидениями / Дом с приколами / The Haunted Mansion
[Full Screen]
«The reluctant guest»
Страна: США
Жанр: Фэнтези, комедия
Год выпуска: 2003
Продолжительность: 01:24:36
Перевод: Профессиональный (дублированный) Видеосервис
Cубтитры: нет
Режиссер: Роб Минкофф / Rob Minkoff
В ролях: Эдди Мерфи, Теренс Стэмп, Натаниель Паркер, Марша Томасон, Дженнифер Тилли, Уоллес Шоун, Дина Спайби, Марк Джон Джеффрис, Эри Дэвис, Джим Дуган, Рэйчел Харрис, Steve Hytner, Heather Juergensen, Джереми Ховард, Дип Рой, Клэй Мартинез, Бриджет Энн Брно, Грегг Лондон, Зэк Минкофф, Шелби Грим, Гарри Дж. Кэмпбелл
Описание: Боитесь привидений? Ну, тогда вам не стоит даже приближаться к старому мрачному особняку со скрипучими дверями и темными-претемными коридорами, особенно в сопровождении всего своего семейства, как это сделал беспечный бизнесмен Джим Иверс. И уж тем более не следует быть замешанным в продаже такой недвижимости, облюбованной компанией дружных и проказливых призраков, которым совсем не улыбалось делить свой уютный жуткий уголок с нахальными и шумными людьми. Уступать никто не желает - и вот за дом начинается настоящая война нервов между семьей Джима и 999 каверзными духами. И у привидений в ней большое преимущество - у них нет нервов!..
От страшного до страшно смешного один шаг! И вам его поможет сделать режиссер знаменитого "Короля Льва" и двух серий "Стюарта Литтла" Роб Минкофф, представляющий вашему вниманию фантастическую семейную комедию "Особняк с Привидениями".
Доп. информация: Оцифровка лицензионной VHS (личный архив) и получение VHSRip alenavova
Эксклюзив для torrentsland.com.ua. При размещении данного релиза на других сайтах ссылка на автора alenavova обязательна.

Релиз
Сэмпл: https://yadi.sk/i/DTfcfATz3E85vU
Качество видео: VHSRip
Формат видео: AVI
Видео: 704x528 (1.33:1), 25 fps, XviD build 73 ~2111 kbps avg, 0.23 bit/pixel
Аудио: 48 kHz, AC3 Dolby Digital, 2/0 (L,R) ch, ~192 kbps

MediaInfo

Особняк с привидениями - The Haunted Mansion [by alenavova].avi
Format : AVI
Format/Info : Audio Video Interleave
File size : 1.37 GiB
Duration : 1 h 24 min
Overall bit rate : 2 313 kb/s
Movie name : Особняк с привидениями - The Haunted Mansion [by alenavova]
Director : by alenavova
Writing application : VirtualDubMod 1.5.10.3 | www.virtualdub-fr.org || (build 2550/release)
Copyright : Edich2
Comment : torrentsland.com.ua
Video
ID : 0
Format : MPEG-4 Visual
Format profile : Advanced Simple@L5
Format settings, BVOP : 1
Format settings, QPel : No
Format settings, GMC : No warppoints
Format settings, Matrix : Custom
Codec ID : XVID
Codec ID/Hint : XviD
Duration : 1 h 24 min
Bit rate : 2 111 kb/s
Width : 704 pixels
Height : 528 pixels
Display aspect ratio : 4:3
Frame rate : 25.000 FPS
Color space : YUV
Chroma subsampling : 4:2:0
Bit depth : 8 bits
Scan type : Progressive
Compression mode : Lossy
Bits/(Pixel*Frame) : 0.227
Stream size : 1.25 GiB (91%)
Writing library : XviD 73
Audio
ID : 1
Format : AC-3
Format/Info : Audio Coding 3
Mode extension : CM (complete main)
Format settings, Endianness : Big
Codec ID : 2000
Duration : 1 h 24 min
Bit rate mode : Constant
Bit rate : 192 kb/s
Channel(s) : 2 channels
Channel positions : Front: L R
Sampling rate : 48.0 kHz
Frame rate : 31.250 FPS (1536 spf)
Bit depth : 16 bits
Compression mode : Lossy
Stream size : 116 MiB (8%)
Alignment : Split accross interleaves
Interleave, duration : 40 ms (1.00 video frame)
Interleave, preload duratio : 500 ms

Скриншоты


[Profile]  [PM] 
Display posts:    
Reply to topic

Current time is: 28-Nov 18:51

All times are UTC + 2



You cannot post new topics in this forum
You cannot reply to topics in this forum
You cannot edit your posts in this forum
You cannot delete your posts in this forum
You cannot vote in polls in this forum
You cannot attach files in this forum
You cannot download files in this forum