Месть / Pimp Bullies. Victimas de un Prostibulo (Альфонсо Родригес / Alfonso Rodriguez) [2011, Доминиканская Республика, Боевик, триллер, криминал, HDRip] DVO (НТВ+)

Reply to topic
 
Author
Message

Satyr ®

Gender: Unknown

Longevity: 12 years

Posts: 17692

Reputation: 56 [+] [-]

Satyr · Post 16-Feb-2017 15:05

[Quote] 

Месть / Pimp Bullies. Victimas de un Prostibulo- Страна: Доминиканская Республика
Жанр: Боевик, триллер, криминал
Год выпуска: 2011
Продолжительность: 01:21:35-Перевод: Профессиональный (двухголосый закадровый) [НТВ+]
Cубтитры: нет-Режиссер: Альфонсо Родригес / Alfonso Rodriguez-В ролях: Винг Реймз, Стивен Бауэр, Эдриан Беллани, Маркос Бонетти, Чикинкира Дельгадо, Лаура Гарсия, Хемки Мадера, Фард Насир, Кристен Куинтрелл, Каталина Родригез-Описание: Спустя 15 лет полицейский приступает к расследованию убийства проститутки: еще живы свидетели, есть возможность восстановить картину происшествия. Однако, сколько мужчина ни допрашивает знакомых погибшей, дело не продвигается. Наконец, одна из проституток решает помочь следователю, а вскоре погибают основные свидетели.-Sample | IMDB | КиноПоиск-Тип релиза: HDRip [исх. BDRip 720p]
Формат видео: AVI-Видео: 656x368 (1.78:1), 23.976 fps, XviD build 50, 1137 kbps avg, 0.20 bit/pixel
Аудио: 48 kHz, MPEG Layer 3, 2 ch, 128.00 kbps avg [Russian_DVO]-Релиз группы: -

MediaInfo

General
Complete name : E:\Мои раздачи\Pimp Bullies_HDRip_[745]_RG_All_Films.avi
Format : AVI
Format/Info : Audio Video Interleave
File size : 744 MiB
Duration : 1h 21mn
Overall bit rate : 1 275 Kbps
Writing application : VirtualDubMod 1.6.0.0 SURROUND (build 2560/release)
Writing library : VirtualDubMod build 2560/release
Video
ID : 0
Format : MPEG-4 Visual
Format profile : Advanced Simple@L5
Format settings, BVOP : Yes
Format settings, QPel : No
Format settings, GMC : No warppoints
Format settings, Matrix : Custom
Codec ID : XVID
Codec ID/Hint : XviD
Duration : 1h 21mn
Bit rate : 1 138 Kbps
Width : 656 pixels
Height : 368 pixels
Display aspect ratio : 16:9
Frame rate : 23.976 fps
Color space : YUV
Chroma subsampling : 4:2:0
Bit depth : 8 bits
Scan type : Progressive
Compression mode : Lossy
Bits/(Pixel*Frame) : 0.197
Stream size : 664 MiB (89%)
Writing library : XviD 1.2.1 (UTC 2008-12-04)
Audio
ID : 1
Format : MPEG Audio
Format version : Version 1
Format profile : Layer 3
Mode : Joint stereo
Mode extension : MS Stereo
Codec ID : 55
Codec ID/Hint : MP3
Duration : 1h 21mn
Bit rate mode : Constant
Bit rate : 128 Kbps
Channel(s) : 2 channels
Sampling rate : 48.0 KHz
Compression mode : Lossy
Stream size : 74.7 MiB (10%)
Alignment : Aligned on interleaves
Interleave, duration : 42 ms (1.00 video frame)
Interleave, preload duration : 504 ms

Скриншоты

[Profile]  [PM] 
Display posts:    
Reply to topic

Current time is: 23-Jun 07:56

All times are UTC + 2



You cannot post new topics in this forum
You cannot reply to topics in this forum
You cannot edit your posts in this forum
You cannot delete your posts in this forum
You cannot vote in polls in this forum
You cannot attach files in this forum
You cannot download files in this forum