Невысказанный /Призрак дома Бриар / Unspoken / The Haunting of Briar House (Шелдон Уилсон / Sheldon Wilson) [2016, Канада, триллер, WEB-DLRip] Dub

Reply to topic
 
Author
Message

Satyr ®

Online

Gender: Unknown

Longevity: 11 years

Posts: 15401

Reputation: 55 [+] [-]

Satyr · Post 16-Feb-2017 15:05

[Quote] 

-Невысказанный /Призрак дома Бриар / Unspoken / The Haunting of Briar House
«Не буди корни зла»- -Страна: Канада
Жанр: триллер
Год выпуска: 2016
Продолжительность: 01:35:40-Перевод: Профессиональный (дублированный) iTunes
Cубтитры: нет
Оригинальная аудиодорожка: нет-Режиссер: Шелдон Уилсон / Sheldon Wilson-В ролях: Джоделль Ферланд, Санни Сулджик, Мэтт Беллефло, Рукия Бернард, Тревор Кэрролл, Фульвио Чечере, Чилтон Крэйн-Описание: В 1997 году в один дом была вызвана полиция. В доме никого не было, но повсюду была кровь, следы борьбы и полицейский видел нечто странное. 17 лет спустя, в доме заселилась молодая женщина с девятилетним молчаливым сыном Адрианом. Неприятности не заставляют себя долго ждать, когда выясняется, что группа местных ребят прятали наркотики в подвале этого дома.- - -Качество видео: WEB-DLRip / WEB-DL 1080p
Формат видео: AVI-Видео: XviD build 67, 720x304 (2.35:1), 23.976 fps, ~1788 kbps avg, 0.341 bit/pixel
Аудио: 48 kHz, AC3 Dolby Digital, 3/2 (L,C,R,l,r) + LFE ch, ~384 kbps avg-

MediaInfo

Complete name : C:\Users\ИВАН\Desktop\Призрак дома Бриар (2015) WEB-DLRip.avi
Format : AVI
Format/Info : Audio Video Interleave
File size : 1.46 GiB
Duration : 1 h 35 min
Overall bit rate : 2 182 kb/s
Writing application : VirtualDubMod 1.5.10.3 | www.virtualdub-fr.org || (build 2550/release)
Writing library : VirtualDubMod build 2550/release
Video
ID : 0
Format : MPEG-4 Visual
Format profile : Advanced Simple@L5
Format settings, BVOP : 1
Format settings, QPel : No
Format settings, GMC : No warppoints
Format settings, Matrix : Custom
Codec ID : XVID
Codec ID/Hint : XviD
Duration : 1 h 35 min
Bit rate : 1 788 kb/s
Width : 720 pixels
Height : 304 pixels
Display aspect ratio : 2.35:1
Frame rate : 23.976 (24000/1001) FPS
Color space : YUV
Chroma subsampling : 4:2:0
Bit depth : 8 bits
Scan type : Progressive
Compression mode : Lossy
Bits/(Pixel*Frame) : 0.341
Stream size : 1.20 GiB (82%)
Writing library : XviD 67
Audio
ID : 1
Format : AC-3
Format/Info : Audio Coding 3
Mode extension : CM (complete main)
Format settings, Endianness : Big
Codec ID : 2000
Duration : 1 h 35 min
Bit rate mode : Constant
Bit rate : 384 kb/s
Channel(s) : 6 channels
Channel positions : Front: L C R, Side: L R, LFE
Sampling rate : 48.0 kHz
Frame rate : 31.250 FPS (1536 spf)
Bit depth : 16 bits
Compression mode : Lossy
Stream size : 263 MiB (18%)
Alignment : Split accross interleaves
Interleave, duration : 42 ms (1.00 video frame)
Interleave, preload duratio : 500 ms

Скриншот c названием фильма

Скриншоты

[Profile]  [PM] 
Display posts:    
Reply to topic

Current time is: 01-Dec 04:31

All times are UTC + 2



You cannot post new topics in this forum
You cannot reply to topics in this forum
You cannot edit your posts in this forum
You cannot delete your posts in this forum
You cannot vote in polls in this forum
You cannot attach files in this forum
You cannot download files in this forum