Кумир / The Idol / Ya tayr el tayer (Хани Абу-Ассад / Hany Abu-Assad) [2015, Палестина, Нидерланды, Великобритания, Аргентина, Катар, драма, комедия, биография, музыка, DVDRip] VO

Reply to topic
 
Author
Message

Satyr ®

Gender: Unknown

Longevity: 11 years

Posts: 15401

Reputation: 55 [+] [-]

Satyr · Post 16-Feb-2017 15:05

[Quote] 

Кумир / The Idol / Ya tayr el tayer
Страна: Палестина, Нидерланды, Великобритания, Аргентина, Катар
Жанр: драма, комедия, биография, музыка
Год выпуска: 2015
Продолжительность: 01:34:46
Перевод: Одноголосый закадровый (visanti-vasaer)
Cубтитры: нет
Оригинальная аудиодорожка: арабский
Режиссер: Хани Абу-Ассад / Hany Abu-Assad
В ролях: Тауфик Бархом, Ахмед Аль Рок, Хиба Аталла, Каис Аталла, Абдель Карим Баракех, Надин Лабаки
Описание: Основанная на реальных событиях драматическая история о непростом пути к славе молодого певца из блокированного Палестинского сектора Газа.
Доп. информация: Фильм выдвинут Палестиной на премию «Оскар» за лучший фильм на иностранном языке в 2017г.
Сэмпл: https://yadi.sk/i/BKAn8P8M3E89Zo
Качество видео: DVDRip
Формат видео: AVI
Видео: DivX, 720x320 (2,25:1), 25 fps, 1807 kbps
Аудио: AC3 48,0 КГц, 2ch, 192 Кбит/сек
Аудио 2: MP 3, 48000 Гц, 2ch, 128 Кбит/сек

MediaInfo

Формат : AVI
Формат/Информация : Audio Video Interleave
Профиль формата : OpenDML
Настройки формата : rec
Размер файла : 1,41 Гбайт
Продолжительность : 1 ч. 34 м.
Общий поток : 2132 Кбит/сек
Программа кодирования : AVI-Mux GUI 1.17.8.3, Feb 16 201019:42:50
Видео
Идентификатор : 0
Формат : MPEG-4 Visual
Профиль формата : Advanced Simple@L5
Параметр BVOP формата : 2
Параметр QPel формата : Нет
Параметр GMC формата : Без точки перехода
Параметр матрицы формата : Default (MPEG)
Идентификатор кодека : DX50
Идентификатор кодека/Подсказка : DivX 5
Продолжительность : 1 ч. 34 м.
Битрейт : 1807 Кбит/сек
Ширина : 720 пикселей
Высота : 320 пикселей
Соотношение сторон : 2,25:1
Частота кадров : 25,000 кадров/сек
Цветовое пространство : YUV
Субдискретизация насыщенности : 4:2:0
Битовая глубина : 8 бит
Тип развёртки : Прогрессивная
Метод сжатия : С потерями
Бит/(Пиксели*Кадры) : 0.314
Размер потока : 1,20 Гбайт (85%)
Библиотека кодирования : XviD 1.2.1 (UTC 2008-12-04)
Аудио #1
Идентификатор : 1
Формат : AC-3
Формат/Информация : Audio Coding 3
Расширение режима : CM (complete main)
Параметр Endianness формата : Big
Идентификатор кодека : 2000
Продолжительность : 1 ч. 34 м.
Вид битрейта : Постоянный
Битрейт : 192 Кбит/сек
Каналы : 2 канала
Расположение каналов : Front: L R
Частота : 48,0 КГц
Частота кадров : 31,250 кадров/сек (1536 spf)
Битовая глубина : 16 бит
Метод сжатия : С потерями
Размер потока : 130 Мбайт (9%)
Выравнивание : Соединение по промежуткам
Продолжительность промежутка : 64 мс. (1,60 видеокадра)
Время предзагрузки промежутка : 192 мс.
Заголовок : русский
Аудио #2
Идентификатор : 2
Формат : MPEG Audio
Версия формата : Version 1
Профиль формата : Layer 3
Идентификатор кодека : 55
Идентификатор кодека/Подсказка : MP3
Продолжительность : 1 ч. 34 м.
Вид битрейта : Постоянный
Битрейт : 128 Кбит/сек
Каналы : 2 канала
Частота : 48,0 КГц
Метод сжатия : С потерями
Размер потока : 86,8 Мбайт (6%)
Выравнивание : Соединение по промежуткам
Продолжительность промежутка : 423 мс. (10,58 видеокадров)
Время предзагрузки промежутка : 216 мс.
Заголовок : арабский
Библиотека кодирования : LAME3.99
Настройки программы : -m s -V 4 -q 2 -lowpass 17 -b 128

Скриншот c названием фильма

Скриншоты

[Profile]  [PM] 
Display posts:    
Reply to topic

Current time is: 28-Nov 09:58

All times are UTC + 2



You cannot post new topics in this forum
You cannot reply to topics in this forum
You cannot edit your posts in this forum
You cannot delete your posts in this forum
You cannot vote in polls in this forum
You cannot attach files in this forum
You cannot download files in this forum