Маленькая Англия / Mikra Anglia (Пантелис Вулгарис / Pantelis Voulgaris) [2013, Греция, драма, мелодрама, BDRemux 1080i] VO (PashaUP) + Sub Rus, Gre, Eng + Original Gre

Reply to topic
 
Author
Message

Faust ®

Gender: Unknown

Longevity: 9 years 2 months

Posts: 14058

Reputation: 0 [+] [-]

Faust · Post 16-Feb-2017 19:10

[Quote] 

Маленькая Англия / Mikra Anglia
Страна: Греция
Жанр: драма, мелодрама
Год выпуска: 2013
Продолжительность: 02:33:00
Перевод: Одноголосый закадровый PashaUP
Cубтитры: русские, греческие, английские
Оригинальная аудиодорожка: греческий
Режиссер: Пантелис Вулгарис / Pantelis Voulgaris
В ролях: Пинелопи Цилика, София Коккали, Анеца Пападопулу, Максимос Мурмурис, Василис Василакис, Кристос Калаврузос
Описание: Экранизация романа Иоанны Каристиани "Жасминовый остров".
Сюжет романа повествует о судьбе семьи с греческого острова Андрос. Мечта любой девушки острова - выйти замуж за капитана и обрести положение в обществе и богатство. Но ведет ли такой путь к счастью?
Сэмпл: http://sendfile.su/1307050
Тип релиза: BDRemux 1080i
Контейнер: MKV
Видео: 1920x1080 (16:9), 25.000 fps, AVC, 15009 kbps, 0.283 bits/pixel
Аудио: Russian, 48.0 KHz, AC3, 2 ch, 192 Kbps
Аудио 2: Greek, 48.0 KHz, AC3, 6 ch, 448 Kbps
Формат субтитров: softsub (SRT)

MediaInfo

General
Unique ID : 191107715596752428825244328088253874827 (0x8FC601D853737992B175161481C9C28B)
Complete name : C:\Новая папка\Mikra Anglia 2013 1080p BDRemux AVC DD 5.1.mkv
Format : Matroska
Format version : Version 4 / Version 2
File size : 16.7 GiB
Duration : 2h 33mn
Overall bit rate mode : Variable
Overall bit rate : 15.6 Mbps
Encoded date : UTC 2017-02-08 07:50:33
Writing application : mkvmerge v7.4.0 ('Circles') 64bit built on Dec 12 2014 12:19:56
Writing library : libebml v1.3.0 + libmatroska v1.4.1
_STATISTICS_WRITING_APP : mkvmerge v7.4.0 ('Circles') 64bit built on Dec 12 2014 12:19:56
_STATISTICS_WRITING_DATE_UTC : 2017-02-08 07:50:33
_STATISTICS_TAGS : BPS DURATION NUMBER_OF_FRAMES NUMBER_OF_BYTES
DURATION : 02:32:59.808000000
NUMBER_OF_FRAMES : 286869
NUMBER_OF_BYTES : 220315392
Video
ID : 1
Format : AVC
Format/Info : Advanced Video Codec
Format profile : High@L4.1
Format settings, CABAC : Yes
Format settings, ReFrames : 3 frames
Format settings, GOP : M=3, N=12
Codec ID : V_MPEG4/ISO/AVC
Duration : 2h 33mn
Bit rate mode : Variable
Bit rate : 14.7 Mbps
Maximum bit rate : 35.0 Mbps
Width : 1 920 pixels
Height : 1 080 pixels
Display aspect ratio : 16:9
Frame rate mode : Constant
Frame rate : 25.000 fps
Standard : NTSC
Color space : YUV
Chroma subsampling : 4:2:0
Bit depth : 8 bits
Scan type : MBAFF
Bits/(Pixel*Frame) : 0.283
Stream size : 15.7 GiB (94%)
Language : Greek
Default : Yes
Forced : No
Color primaries : BT.709
Transfer characteristics : BT.709
Matrix coefficients : BT.709
Audio #1
ID : 2
Format : AC-3
Format/Info : Audio Coding 3
Mode extension : CM (complete main)
Format settings, Endianness : Big
Codec ID : A_AC3
Duration : 2h 33mn
Bit rate mode : Constant
Bit rate : 192 Kbps
Channel(s) : 2 channels
Channel positions : Front: L R
Sampling rate : 48.0 KHz
Bit depth : 16 bits
Compression mode : Lossy
Stream size : 210 MiB (1%)
Language : Russian
Default : Yes
Forced : No
Audio #2
ID : 3
Format : AC-3
Format/Info : Audio Coding 3
Mode extension : CM (complete main)
Format settings, Endianness : Big
Codec ID : A_AC3
Duration : 2h 33mn
Bit rate mode : Constant
Bit rate : 448 Kbps
Channel(s) : 6 channels
Channel positions : Front: L C R, Side: L R, LFE
Sampling rate : 48.0 KHz
Bit depth : 16 bits
Compression mode : Lossy
Stream size : 490 MiB (3%)
Language : Greek
Default : No
Forced : No
Text #1
ID : 4
Format : UTF-8
Codec ID : S_TEXT/UTF8
Codec ID/Info : UTF-8 Plain Text
Language : Russian
Default : No
Forced : No
Text #2
ID : 5
Format : UTF-8
Codec ID : S_TEXT/UTF8
Codec ID/Info : UTF-8 Plain Text
Language : Greek
Default : No
Forced : No
Text #3
ID : 6
Format : UTF-8
Codec ID : S_TEXT/UTF8
Codec ID/Info : UTF-8 Plain Text
Language : English
Default : No
Forced : No
Menu
00:00:00.000 : en:00:00:00.000
00:07:21.520 : en:00:07:21.520
00:26:21.520 : en:00:26:21.520
00:37:53.680 : en:00:37:53.680
00:55:01.360 : en:00:55:01.360
01:07:21.040 : en:01:07:21.040
01:19:48.400 : en:01:19:48.400
01:32:24.400 : en:01:32:24.400
01:40:02.800 : en:01:40:02.800
01:59:23.920 : en:01:59:23.920
02:08:17.200 : en:02:08:17.200
02:29:00.400 : en:02:29:00.400

Скриншоты

[Profile]  [PM] 
Display posts:    
Reply to topic

Current time is: 01-Dec 04:58

All times are UTC + 2



You cannot post new topics in this forum
You cannot reply to topics in this forum
You cannot edit your posts in this forum
You cannot delete your posts in this forum
You cannot vote in polls in this forum
You cannot attach files in this forum
You cannot download files in this forum