Пираты Карибского моря: На краю Света / Pirates of the Caribbean: At World\'s End (Гор Вербински / Gore Verbinski) [2007, США, фэнтези, боевик, приключения, WEBRip] [Open Matte] Dub + DVO (Гланц и Королёва) + AVO (Гаврилов) + Original Eng

Reply to topic
 
Author
Message

Advocat ®

Gender: Unknown

Longevity: 11 years

Posts: 3094

Reputation: 0 [+] [-]

Advocat · Post 17-Feb-2017 15:45

[Quote] 

Пираты Карибского моря: На краю Света / Pirates of the Caribbean: At World's End / Open Matte
-1-ая часть | 2-ая часть | 3-ья часть-Страна: США
Жанр: фэнтези, боевик, приключения
Год выпуска: 2007
Продолжительность: 02:48:38
Перевод: Профессиональный (дублированный)
Перевод 2: Профессиональный (двухголосый закадровый) Гланц и Королёва
Перевод 3: Авторский (одноголосый закадровый) Гаврилов
Cубтитры: нет
Оригинальная аудиодорожка: английский
Режиссер: Гор Вербински / Gore Verbinski
В ролях: Джонни Депп, Джеффри Раш, Орландо Блум, Кира Найтли, Том Холландер, Билл Найи, Стеллан Скарсгард, Наоми Харрис, Джек Девенпорт, Чоу Юнь-Фат
Описание: Новые приключения Джека Воробья и его друзей Уилла Тернера и Элизабет Суонн. На этот раз Уиллу и Элизабет придется объединиться с самим Капитаном Барбоссой для того, чтобы отправиться на край света и спасти своего друга - Джека. Ситуация осложняется тем, что Элизабет попадает к сингапурским пиратам...
Доп. информация: Локализованный видеоряд. Запись с онлайн-кинотеатра
Различия BD и WEB-DL - разное наполнение кадра - 16:9 (1.78:1) -> http://screenshotcomparison.com/comparison/196431
Сравнение с HDTVRip -> http://screenshotcomparison.com/comparison/196432
Фильмы в Fullscreen (4:3) и Open Matte (16:9) форматах
Сэмпл: https://m.sendspace.com/file/7b6n2g
Качество видео: WEBRip [Pirates of the Caribbean At World's End(2007) WEB-DL 1080p [Open Matte] -BLUEBIRD.mkv]
Формат видео: AVI
Видео: XviD / 2029 kbps / 704x400 / 23.976 fps
Аудио: DUB (Rus) / AC3 / 6 ch / 448 kbps / 48 kHz
Аудио 2: DVO Гланц и Королёва (Rus) / AC3 / 6 ch / 448 kbps / 48 kHz - отдельно
Аудио 3: AVO Гаврилов (Rus) / AC3 / 6 ch / 448 kbps / 48 kHz - отдельно
Аудио 4: Original (Eng) / AC3 / 6 ch / 448 kbps / 48 kHz - отдельно

MediaInfo

General
Complete name : J:\Torrents\Готовые релизы\Пираты Карибского моря - На краю света (2007) WEB-DLRip [Open Matte]\Пираты Карибского моря - На краю света (2007) WEB-DLRip [Open Matte].avi
Format : AVI
Format/Info : Audio Video Interleave
Format profile : OpenDML
File size : 2.93 GiB
Duration : 2h 48mn
Overall bit rate : 2 489 Kbps
Video
ID : 0
Format : MPEG-4 Visual
Format profile : Advanced Simple@L5
Format settings, BVOP : 2
Format settings, QPel : No
Format settings, GMC : No warppoints
Format settings, Matrix : Default (MPEG)
Codec ID : XVID
Codec ID/Hint : XviD
Duration : 2h 48mn
Bit rate : 2 029 Kbps
Width : 704 pixels
Height : 400 pixels
Display aspect ratio : 16:9
Frame rate : 23.976 (23976/1000) fps
Color space : YUV
Chroma subsampling : 4:2:0
Bit depth : 8 bits
Scan type : Progressive
Compression mode : Lossy
Bits/(Pixel*Frame) : 0.301
Stream size : 2.39 GiB (82%)
Writing library : XviD 64
Audio
ID : 1
Format : AC-3
Format/Info : Audio Coding 3
Mode extension : CM (complete main)
Format settings, Endianness : Big
Codec ID : 2000
Duration : 2h 48mn
Bit rate mode : Constant
Bit rate : 448 Kbps
Channel(s) : 6 channels
Channel positions : Front: L C R, Side: L R, LFE
Sampling rate : 48.0 KHz
Frame rate : 31.250 fps (1536 spf)
Compression mode : Lossy
Stream size : 540 MiB (18%)
Alignment : Aligned on interleaves
Interleave, duration : 32 ms (0.77 video frame)

Скриншот c названием фильма

Скриншоты

[Profile]  [PM] 
Display posts:    
Reply to topic

Current time is: 23-Sep 08:32

All times are UTC + 2



You cannot post new topics in this forum
You cannot reply to topics in this forum
You cannot edit your posts in this forum
You cannot delete your posts in this forum
You cannot vote in polls in this forum
You cannot attach files in this forum
You cannot download files in this forum