Безумный Макс: Дорога ярости / Mad Max: Fury Road (Джордж Миллер / George Miller) [2015, Австралия, США, Футуристическая драма, фантастика, приключения, BDRip] [Black & Chrome Edition] 4x AVO (Гаврилов, Володарский, Карповский, Сербин)

Reply to topic
 
Author
Message

Satyr ®

Gender: Unknown

Longevity: 11 years

Posts: 15401

Reputation: 55 [+] [-]

Satyr · Post 17-Feb-2017 19:50

[Quote] 

Безумный Макс: Дорога ярости / Mad Max: Fury Road / Black & Chrome Edition
-BDRip-AVC | BDRip (Black & Chrome Edition)-Страна: Австралия, США
Жанр: Футуристическая драма, фантастика, приключения
Год выпуска: 2015
Продолжительность: 02:00:23
Перевод: Авторский (одноголосый закадровый) А. Гаврилов
Перевод 2: Авторский (одноголосый закадровый) Л. Володарский
Перевод 3: Авторский (одноголосый закадровый) А. Карповский
Перевод 4: Авторский (одноголосый закадровый) Ю. Сербин
Cубтитры: нет
Оригинальная аудиодорожка: нет
Режиссер: Джордж Миллер / George Miller
В ролях: Том Харди, Шарлиз Терон, Николас Холт, Хью Кияс-Бёрн, Райли Кио, Роузи Хантингтон-Уайтли, Зои Кравиц, Эбби Ли, Кортни Итон, Нэйтан Джонс, Джош Хелман, Джон Ховард
Описание: Преследуемый призраками беспокойного прошлого, Макс уверен, что лучший способ выжить — скитаться в одиночестве. Несмотря на это, он присоединяется к бунтарям, бегущим через всю пустыню на боевой фуре, под предводительством военачальника Фуриосы.
Они пытаются сбежать из Цитадели, страдающей от тирании Несмертного Джо, у которого они забрали кое-что очень ценное. Разъярённый военачальник бросает все свои силы на погоню за мятежниками, ступая на дорогу войны — дорогу ярости.
Доп. информация: Сравнения изданий фильма -> https://www.youtube.com/watch?v=rqnD_Qfx1vQ
Скачать отдельно звуковые дорожки с переводом А. Гаврилова (AC3, DTS, DTS-HD MA) -> http://torrentsland.com.ua/forum/viewtopic.php?t=5109960
Сэмпл: http://multi-up.com/1141081
Качество видео: BDRip Исходник
Формат видео: AVI
Видео: XviD / 2140 kbps / 720x304 / 23.976 fps
Аудио: AVO Гаврилов (Rus) / AC3 / 6 ch / 448 kbps / 48 kHz
Аудио 2: AVO Володарский (Rus) / AC3 / 6 ch / 448 kbps / 48 kHz - отдельно
Аудио 3: AVO Карповский (Rus) / AC3 / 6 ch / 448 kbps / 48 kHz - отдельно
Аудио 4: AVO Сербин (Rus) / AC3 / 6 ch / 448 kbps / 48 kHz - отдельно

MediaInfo

General
Complete name : J:\Torrents\Готовые релизы\Безумный Макс - Дорога ярости (2015) BDRip [Black & Chrome Edition]\Безумный Макс - Дорога ярости (2015) BDRip [Black & Chrome Edition].avi
Format : AVI
Format/Info : Audio Video Interleave
Format profile : OpenDML
File size : 2.19 GiB
Duration : 2h 0mn
Overall bit rate : 2 602 Kbps
Video
ID : 0
Format : MPEG-4 Visual
Format profile : Advanced Simple@L5
Format settings, BVOP : 1
Format settings, QPel : No
Format settings, GMC : No warppoints
Format settings, Matrix : Default (MPEG)
Codec ID : XVID
Codec ID/Hint : XviD
Duration : 2h 0mn
Bit rate : 2 140 Kbps
Width : 720 pixels
Height : 304 pixels
Display aspect ratio : 2.35:1
Frame rate : 23.976 (23976/1000) fps
Color space : YUV
Chroma subsampling : 4:2:0
Bit depth : 8 bits
Scan type : Progressive
Compression mode : Lossy
Bits/(Pixel*Frame) : 0.408
Stream size : 1.80 GiB (82%)
Writing library : XviD 64
Audio
ID : 1
Format : AC-3
Format/Info : Audio Coding 3
Mode extension : CM (complete main)
Format settings, Endianness : Big
Codec ID : 2000
Duration : 2h 0mn
Bit rate mode : Constant
Bit rate : 448 Kbps
Channel(s) : 6 channels
Channel positions : Front: L C R, Side: L R, LFE
Sampling rate : 48.0 KHz
Frame rate : 31.250 fps (1536 spf)
Compression mode : Lossy
Stream size : 386 MiB (17%)
Alignment : Aligned on interleaves
Interleave, duration : 32 ms (0.77 video frame)

Скриншот c названием фильма

Скриншоты

[Profile]  [PM] 
Display posts:    
Reply to topic

Current time is: 28-Nov 19:15

All times are UTC + 2



You cannot post new topics in this forum
You cannot reply to topics in this forum
You cannot edit your posts in this forum
You cannot delete your posts in this forum
You cannot vote in polls in this forum
You cannot attach files in this forum
You cannot download files in this forum