Доктор Стрэндж / Doctor Strange (Скотт Дерриксон / Scott Derrickson) [2016, США, фантастика, фэнтези, боевик, приключения, BDRip] [IMAX Edition] Dub (iTunes)

Reply to topic
 
Author
Message

Satyr ®

Gender: Unknown

Longevity: 11 years

Posts: 15401

Reputation: 55 [+] [-]

Satyr · Post 18-Feb-2017 12:15

[Quote] 

Доктор Стрэндж / Doctor Strange / IMAX Edition
Страна: США
Жанр: Фантастика, фэнтези, боевик, приключения
Год выпуска: 2016
Продолжительность: 01:54:58
Перевод: Профессиональный (дублированный) iTunes
Cубтитры: нет
Режиссер: Скотт Дерриксон / Scott Derrickson
В ролях: Бенедикт Камбербэтч, Тильда Суинтон, Мадс Миккельсен, Чиветел Эджиофор, Рэйчел МакАдамс, Бенедикт Вонг, Майкл Стулбарг, Бенджамин Брэтт, Скотт Эдкинс, Зара Питиан
Описание: Стивен Стрэндж работает нейрохирургом в районной поликлинике. В течение многих лет он успешно избавляет человеческие тела от ненужных им органов и инородных предметов, вытаскивая людей буквально с того света. В результате страшной автокатастрофы доктор получает травмы, несовместимые с его профессиональной деятельностью. Поиски исцеления приводят его в Непал к могущественному мистику. Под ее духовным наставничеством Стрэндж открывает в себе третий глаз и большой талант к издевательствам над пространственно-временным континуумом. Так начинается история Верховного мага Земли и главного защитника планеты от мистических угроз.
Доп. информация: сравнение с обычной версией http://screenshotcomparison.com/comparison/200847/picture:0
Сэмпл: http://multi-up.com/1141234
Качество видео: BDRip DOCTOR_STRANGE_3D_REMUX_HDCLUB
Формат видео: AVI
Видео: 720x384 (1.88:1), 23.976 fps, XviD build 50 ~1308 kbps avg, 0.20 bit/pixel
Аудио: 48 kHz, AC3 Dolby Digital, 3/2 (L,C,R,l,r) + LFE ch, ~384 kbps

MediaInfo

Формат : AVI
Формат/Информация : Audio Video Interleave
Размер файла : 1,37 Гбайт
Продолжительность : 1 ч. 54 м.
Общий поток : 1702 Кбит/сек
Название фильма : D0kt0P.CtPeHdzh.2O16.D.BDRip.14OOMB.IMAX
Программа кодирования : VirtualDubMod 1.5.10.2 (build 2540/release)
Формат оригинала/Имя : Movie
Видео
Идентификатор : 0
Формат : MPEG-4 Visual
Профиль формата : Advanced Simple@L5
Параметр BVOP формата : 2
Параметр QPel формата : Нет
Параметр GMC формата : Без точки перехода
Параметр матрицы формата : Выборочная
Идентификатор кодека : XVID
Идентификатор кодека/Подсказка : XviD
Продолжительность : 1 ч. 54 м.
Битрейт : 1309 Кбит/сек
Ширина : 720 пикселей
Высота : 384 пикселя
Соотношение сторон : 1,85:1
Частота кадров : 23,976 (24000/1001) кадра/сек
Цветовое пространство : YUV
Субдискретизация насыщенности : 4:2:0
Битовая глубина : 8 бит
Тип развёртки : Прогрессивная
Метод сжатия : С потерями
Бит/(Пиксели*Кадры) : 0.197
Размер потока : 1,05 Гбайт (77%)
Библиотека кодирования : XviD 1.2.1 (UTC 2008-12-04)
Аудио
Идентификатор : 1
Формат : AC-3
Формат/Информация : Audio Coding 3
Расширение режима : CM (complete main)
Параметр Endianness формата : Big
Идентификатор кодека : 2000
Продолжительность : 1 ч. 54 м.
Вид битрейта : Постоянный
Битрейт : 384 Кбит/сек
Каналы : 6 каналов
Расположение каналов : Front: L C R, Side: L R, LFE
Частота : 48,0 КГц
Частота кадров : 31,250 кадров/сек (1536 spf)
Метод сжатия : С потерями
Размер потока : 316 Мбайт (23%)
Выравнивание : Разделение по промежуткам
Продолжительность промежутка : 42 мс. (1,00 видеокадр)
Время предзагрузки промежутка : 500 мс.

Скриншоты

[Profile]  [PM] 
Display posts:    
Reply to topic

Current time is: 25-Nov 13:52

All times are UTC + 2



You cannot post new topics in this forum
You cannot reply to topics in this forum
You cannot edit your posts in this forum
You cannot delete your posts in this forum
You cannot vote in polls in this forum
You cannot attach files in this forum
You cannot download files in this forum