Доктор Стрэндж / Doctor Strange (Скотт Дерриксон / Scott Derrickson) [2016, США, фантастика, фэнтези, боевик, BDRip-AVC] Dub + Original + Sub (rus, eng)

Reply to topic
 
Author
Message

Satyr ®

Gender: Unknown

Longevity: 11 years

Posts: 15401

Reputation: 55 [+] [-]

Satyr · Post 18-Feb-2017 12:15

[Quote] 

Доктор Стрэндж / Doctor Strange«За гранью сознания лежит новая реальность»- Страна: США
Жанр: фантастика, фэнтези, боевик, приключения
Год выпуска: 2016
Продолжительность: 01:55:15
Перевод: Профессиональный (дублированный) (iTunes)
Оригинальная аудиодорожка: английский
Субтитры: русские (форс., полные) английские (полные)
Навигация по главам: есть
Режиссер: Скотт Дерриксон / Scott Derrickson
В ролях: Бенедикт Камбербэтч (Dr. Stephen Strange), Тильда Суинтон (The Ancient One), Мадс Миккельсен (Kaecilius), Чиветель Эджиофор (Mordo), Рэйчел МакАдамс (Christine Palmer), Бенедикт Вонг (Wong), Майкл Стулбарг (Dr. Nicodemus West), Бенджамин Брэтт (Jonathan Pangborn), Скотт Эдкинс (Lucian / Strong Zealot), Зара Питиан (Brunette Zealot), Алаа Умузун (Tall Zealot), Катрина Дерден (Blonde Zealot)
Описание: Страшная автокатастрофа поставила крест на карьере успешного нейрохирурга Доктора Стрэнджа. Отчаявшись, он отправляется в путешествие в поисках исцеления и открывает в себе невероятные способности к трансформации пространства и времени. Теперь он - связующее звено между параллельными измерениями, а его миссия - защищать жителей Земли и противодействовать Злу, какое бы обличие оно ни принимало.- -Качество: BDRip-AVC (исходник - BDRemux|DOCTOR_STRANGE_REMUX_HDCLUB)
Формат видео: MKV
Видео: x264, 1152x482 (2.40:1) 23,976 fps, ~2723 kbps, 0.205 bit/pixel
Аудио 1: 48 kHz, AC3 Dolby Digital, 5.1 (Front: L C R, Side: L R, LFE) ch, ~384 kbps, [русский]
Аудио 2: 48 kHz, AC3 Dolby Digital, 5.1 (Front: L C R, Side: L R, LFE) ch, ~448 kbps, [английский]
Формат субтитров: softsub (SRT)-

MediaInfo | x264 log

Format : Matroska
Format version : Version 4 / Version 2
File size : 2.92 GiB
Duration : 1h 55 min
Overall bit rate : 3 627 kb/s
Movie name : Доктор Стрэндж / Doctor Strange (2016) :: AFM ::
Encoded date : UTC 2017-02-17 15:02:02
Writing application : mkvmerge v8.3.0 ('Over the Horizon') 32bit
Writing library : libebml v1.3.1 + libmatroska v1.4.2
Video
ID : 1
Format : AVC
Format/Info : Advanced Video Codec
Format profile : High@L4.1
Format settings, CABAC : Yes
Format settings, ReFrames : 10 frames
Codec ID : V_MPEG4/ISO/AVC
Duration : 1h 55 min
Bit rate : 2 723 kb/s
Width : 1 152 pixels
Height : 482 pixels
Display aspect ratio : 2.40:1
Frame rate mode : Constant
Frame rate : 23.976 (24000/1001) FPS
Color space : YUV
Chroma subsampling : 4:2:0
Bit depth : 8 bits
Scan type : Progressive
Bits/(Pixel*Frame) : 0.205
Stream size : 2.19 GiB (75%)
Title : BDRip by AFM
Writing library : x264 core 148 r2762+56 6284cf3 t_mod_Custom [8-bit@all X86_64]
Encoding settings : cabac=1 / ref=10 / deblock=1:-3:-3 / analyse=0x3:0x133 / me=umh / subme=10 / psy=1 / fade_compensate=0.00 / psy_rd=1.00:0.00 / mixed_ref=1 / me_range=32 / chroma_me=1 / trellis=2 / 8x8dct=1 / cqm=0 / deadzone=21,11 / fast_pskip=0 / chroma_qp_offset=-2 / threads=6 / lookahead_threads=1 / sliced_threads=0 / nr=0 / decimate=1 / interlaced=0 / bluray_compat=0 / constrained_intra=0 / fgo=0 / bframes=13 / b_pyramid=2 / b_adapt=2 / b_bias=0 / direct=1 / weightb=1 / open_gop=0 / weightp=2 / keyint=240 / keyint_min=23 / scenecut=40 / intra_refresh=0 / rc_lookahead=60 / rc=crf / mbtree=0 / crf=17.0000 / qcomp=0.70 / qpmin=0:0:0 / qpmax=69:69:69 / qpstep=4 / vbv_maxrate=50000 / vbv_bufsize=62500 / crf_max=0.0 / nal_hrd=none / filler=0 / ip_ratio=1.30 / pb_ratio=1.20 / aq=3:0.85 / aq-sensitivity=10.00 / aq-factor=1.00:1.00:1.00 / aq2=0 / aq3=0 / zones=154660,162585,q=30
Language : English
Default : Yes
Forced : No
Audio #1
ID : 2
Format : AC-3
Format/Info : Audio Coding 3
Mode extension : CM (complete main)
Format settings, Endianness : Big
Codec ID : A_AC3
Duration : 1h 55 min
Bit rate mode : Constant
Bit rate : 384 kb/s
Channel(s) : 6 channels
Channel positions : Front: L C R, Side: L R, LFE
Sampling rate : 48.0 kHz
Frame rate : 31.250 FPS (1536 spf)
Compression mode : Lossy
Stream size : 317 MiB (11%)
Title : Dub, AC3 5.1 ~384 kbps
Language : Russian
Default : Yes
Forced : No
Audio #2
ID : 3
Format : AC-3
Format/Info : Audio Coding 3
Mode extension : CM (complete main)
Format settings, Endianness : Big
Codec ID : A_AC3
Duration : 1h 55 min
Bit rate mode : Constant
Bit rate : 448 kb/s
Channel(s) : 6 channels
Channel positions : Front: L C R, Side: L R, LFE
Sampling rate : 48.0 kHz
Frame rate : 31.250 FPS (1536 spf)
Compression mode : Lossy
Stream size : 369 MiB (12%)
Title : Original, AC3 5.1 ~448 kbps
Language : English
Default : No
Forced : No
Text #1
ID : 4
Format : UTF-8
Codec ID : S_TEXT/UTF8
Codec ID/Info : UTF-8 Plain Text
Title : forced
Language : Russian
Default : Yes
Forced : No
Text #2
ID : 5
Format : UTF-8
Codec ID : S_TEXT/UTF8
Codec ID/Info : UTF-8 Plain Text
Language : Russian
Default : No
Forced : No
Text #3
ID : 6
Format : UTF-8
Codec ID : S_TEXT/UTF8
Codec ID/Info : UTF-8 Plain Text
Language : English
Default : No
Forced : No
Menu
00:00:00.000 : en:Chapter 1
00:04:34.564 : en:Chapter 2
00:10:16.823 : en:Chapter 3
00:18:32.152 : en:Chapter 4
00:24:37.017 : en:Chapter 5
00:31:40.480 : en:Chapter 6
00:38:33.810 : en:Chapter 7
00:43:16.135 : en:Chapter 8
00:48:24.524 : en:Chapter 9
00:55:34.496 : en:Chapter 10
01:05:04.358 : en:Chapter 11
01:12:38.436 : en:Chapter 12
01:22:14.345 : en:Chapter 13
01:28:28.636 : en:Chapter 14
01:35:00.903 : en:Chapter 15
01:45:06.507 : en:Chapter 16

x264

x264 [info]: frame I:1334 Avg QP:13.60 size: 68674
x264 [info]: frame P:33990 Avg QP:15.11 size: 29403
x264 [info]: frame B:130481 Avg QP:16.29 size: 10149
x264 [info]: consecutive B-frames: 2.6% 2.3% 6.1% 15.5% 18.3% 32.8% 8.1% 2.8% 3.1% 1.6% 1.8% 1.4% 2.4% 1.4%
x264 [info]: mb I I16..4: 3.5% 80.0% 16.5%
x264 [info]: mb P I16..4: 1.0% 15.8% 2.8% P16..4: 33.3% 25.8% 16.7% 0.6% 0.2% skip: 3.9%
x264 [info]: mb B I16..4: 0.1% 1.5% 0.3% B16..8: 35.7% 18.0% 4.8% direct: 5.4% skip:34.2% L0:44.6% L1:43.0% BI:12.4%
x264 [info]: 8x8 transform intra:80.0% inter:58.4%
x264 [info]: coded y,uvDC,uvAC intra: 88.6% 87.5% 72.1% inter: 25.0% 20.0% 5.8%
x264 [info]: i16 v,h,dc,p: 13% 10% 6% 70%
x264 [info]: i8 v,h,dc,ddl,ddr,vr,hd,vl,hu: 17% 10% 6% 8% 12% 11% 12% 11% 13%
x264 [info]: i4 v,h,dc,ddl,ddr,vr,hd,vl,hu: 24% 6% 3% 9% 14% 12% 12% 10% 11%
x264 [info]: i8c dc,h,v,p: 41% 25% 19% 15%
x264 [info]: Weighted P-Frames: Y:5.0% UV:2.7%
x264 [info]: ref P L0: 48.8% 8.2% 17.5% 7.0% 5.6% 3.9% 3.5% 1.9% 1.9% 1.6% 0.2% 0.0%
x264 [info]: ref B L0: 72.3% 12.4% 6.2% 3.1% 2.2% 1.7% 1.4% 0.6% 0.2%
x264 [info]: ref B L1: 93.8% 6.2%
x264 [info]: kb/s:2793.98

Скриншоты

с названием

~~ Source ~~

~~ Rip ~~
[Profile]  [PM] 
Display posts:    
Reply to topic

Current time is: 28-Nov 19:42

All times are UTC + 2



You cannot post new topics in this forum
You cannot reply to topics in this forum
You cannot edit your posts in this forum
You cannot delete your posts in this forum
You cannot vote in polls in this forum
You cannot attach files in this forum
You cannot download files in this forum