Манчестер у моря / Manchester by the Sea (Кеннет Лонерган / Kenneth Lonergan) [2016, США, Драма, BDRip] Original (Eng) + Sub (Rus)

Reply to topic
 
Author
Message

Satyr ®

Gender: Unknown

Longevity: 12 years

Posts: 18194

Reputation: 56 [+] [-]

Satyr · Post 20-Feb-2017 09:10

[Quote] 

Манчестер у моря / Manchester by the Sea- Год выхода: 2016
Выпущено: США / Amazon Studios
Жанр: драма
Продолжительность: 02:17:32
Перевод: Субтитры
Субтитры: Русские (от Skuf - ненормативная лексика) (внешние .srt*)
Оригинальная аудиодорожка: Английская-Режиссер:
Кеннет Лонерган / Kenneth Lonergan-В ролях:
Кейси Аффлек, Мишель Уильямс, Кайл Чандлер, Лукас Хеджес, Бен О’Брайэн, Ричард Донелли, Вирджиния Лоринг Кук, Куинси Тайлер Бернстайн, Мисси Ягер, Стивен Хендерсон-О фильме:
Ленивый и безответственный сантехник Ли после внезапной смерти брата назначен опекуном своего племянника-подростка. Возвращение в родной город дает новый ход трагедии, сокрытой в его прошлом.-Релиз групп | | IMDB | КиноПоиск | Сэмпл |-Качество: BDRip [Manchester.by.the.Sea.2016.Repack.BluRay.1080p.AVC.DTS-HD.MA5.1-CHDBits]
Формат: AVI
Видео: 720x384 (1.88:1), 23.976 fps, XviD build 67 ~1321 kbps avg, 0.20 bit/pixel
Аудио: 48 kHz, AC3 Dolby Digital, 2/0 (L,R) ch, ~192 kbps avg
-

Скриншоты

-

MediaInfo

Общее
Полное имя                               : D:\Manchester_u_morya_2016_BDRip_Sub_by_Dalemake.avi
Формат                                   : AVI
Формат/Информация                        : Audio Video Interleave
Размер файла                             : 1,46 Гбайт
Продолжительность                        : 2 ч. 17 м.
Общий поток                              : 1523 Кбит/сек
Программа кодирования                    : VirtualDubMod 1.5.10.3 | www.virtualdub-fr.org || (build 2550/release)
Библиотека кодирования                   : VirtualDubMod build 2550/release
Видео
Идентификатор                            : 0
Формат                                   : MPEG-4 Visual
Профиль формата                          : Advanced Simple@L5
Параметр BVOP формата                    : 1
Параметр QPel формата                    : Нет
Параметр GMC формата                     : Без точки перехода
Параметр матрицы формата                 : Выборочная
Идентификатор кодека                     : XVID
Идентификатор кодека/Подсказка           : XviD
Продолжительность                        : 2 ч. 17 м.
Битрейт                                  : 1321 Кбит/сек
Ширина                                   : 720 пикселей
Высота                                   : 384 пикселя
Соотношение сторон                       : 1,85:1
Частота кадров                           : 23,976 кадра/сек
Цветовое пространство                    : YUV
Субдискретизация насыщенности            : 4:2:0
Битовая глубина                          : 8 бит
Тип развёртки                            : Прогрессивная
Метод сжатия                             : С потерями
Бит/(Пиксели*Кадры)                      : 0.199
Размер потока                            : 1,27 Гбайт (87%)
Библиотека кодирования                   : XviD 67
Аудио
Идентификатор                            : 1
Формат                                   : AC-3
Формат/Информация                        : Audio Coding 3
Расширение режима                        : CM (complete main)
Параметр Endianness формата              : Big
Идентификатор кодека                     : 2000
Продолжительность                        : 2 ч. 17 м.
Вид битрейта                             : Постоянный
Битрейт                                  : 192 Кбит/сек
Каналы                                   : 2 канала
Расположение каналов                     : Front: L R
Частота                                  : 48,0 КГц
Битовая глубина                          : 16 бит
Метод сжатия                             : С потерями
Размер потока                            : 189 Мбайт (13%)
Выравнивание                             : Разделение по промежуткам
Продолжительность промежутка             : 42  мс. (1,00 видеокадр)
Время предзагрузки промежутка            : 500  мс.

Пример субтитров

391
00:28:48,080 --> 00:28:49,296
Я пытаюсь объяснить тебе, что такое остров.
392
00:28:49,320 --> 00:28:52,676
Вот тот остров купил богатей, так что
никому нельзя строить там дома.
393
00:28:52,760 --> 00:28:55,672
Вот настолько он богат.
Остров Бэйкер, Остров Мизери.
394
00:28:55,760 --> 00:28:58,399
На острове Мизери я и твоя тётя Рэнди поженились.
395
00:29:06,800 --> 00:29:08,518
- Эй?
- Привет, дорогая.
396
00:29:10,360 --> 00:29:12,555
Сьюзи, папочка дома.
397
00:29:15,760 --> 00:29:17,637
- Эй, Сьюзи.
Папа дома.
398
00:29:17,760 --> 00:29:20,194
- Привет, пап.
- Привет, милашка.
399
00:29:23,720 --> 00:29:25,073
Обними.
-При появлении приемлемой озвучки рип будет перезалит!-
[Profile]  [PM] 
Display posts:    
Reply to topic

Current time is: 25-Sep 20:12

All times are UTC + 2



You cannot post new topics in this forum
You cannot reply to topics in this forum
You cannot edit your posts in this forum
You cannot delete your posts in this forum
You cannot vote in polls in this forum
You cannot attach files in this forum
You cannot download files in this forum