Ничего не бояться / Peur de rien / Parisienne (Даниэль Арбид / Danielle Arbid) [2015, Франция, драма, WEBRip] Sub Rus, Eng + Original Fre

Reply to topic
 
Author
Message

Satyr ®

Gender: Unknown

Longevity: 12 years

Posts: 18194

Reputation: 56 [+] [-]

Satyr · Post 20-Feb-2017 17:20

[Quote] 

Ничего не бояться / Peur de rien / Parisienne
Страна: Франция
Жанр: драма
Год выпуска: 2015
Продолжительность: 01:55:55
Перевод: Субтитры
Cубтитры: русские
Оригинальная аудиодорожка: французский

Режиссер: Даниэль Арбид / Danielle Arbid
В ролях: Маналь Исса, Венсан Лакост, Поль Ами, Дэмиен Шапель, Доминик Блан, Клара Понсо, Индия Хэйр, Бастьен Буллон, Ален Либоль, Валид Зуэйтер
Описание: 90-е годы. Восемнадцатилетняя Лина приезжает учиться в Париж. Она в поиске того, чего никогда не могла найти в своем родном Ливане: своеобразную форму свободы. Инстинкт выживания - это единственный багаж в ходе ее любовных похождений по Парижу. Потому как в 18 лет мы мечтаем поцеловать не одного парня, а весь мир...
Качество видео: WEBRip
Формат видео: AVI
Видео: 720x384 (1.88:1), 25 fps, XviD build 73 ~1597 kbps avg, 0.23 bit/pixel
Аудио: 48 kHz, AC3 Dolby Digital, 2/0 (L,R) ch, ~192 kbps
Формат субтитров: softsub (SRT)

Фрагмент субтитров

335
00:25:22,800 --> 00:25:24,360
я скажу тебе правду.
336
00:25:27,320 --> 00:25:29,800
Я провожу с женщиной
не больше трех ночей.
337
00:25:29,960 --> 00:25:33,160
Две женщины в неделю -
это шесть ночей.
338
00:25:33,320 --> 00:25:34,520
Итого,
339
00:25:34,680 --> 00:25:35,840
четырежды шесть...
340
00:25:36,320 --> 00:25:37,560
24 ночи в месяц.
341
00:25:38,440 --> 00:25:40,200
А в год получается...
342
00:25:40,720 --> 00:25:42,400
288 женщин.
343
00:25:42,560 --> 00:25:44,480
То есть 288 ночей.
344
00:25:45,440 --> 00:25:47,400
И 288 ужинов в ресторане.
345
00:25:48,360 --> 00:25:51,760
Так что я не всех сюда приглашаю.
Это было бы скучно.
346
00:25:52,880 --> 00:25:54,160
Он на ударных играет.
347
00:25:54,320 --> 00:25:56,040
Он ее любит,
но скрывает это.

MediaInfo

General
Complete name : H:\Peur.de.rien.2015.webrip_[1.46]_[teko]\Peur.de.rien.2015.webrip_[1.46].avi
Format : AVI
Format/Info : Audio Video Interleave
File size : 1.46 GiB
Duration : 1h 55mn
Overall bit rate : 1 800 Kbps
Writing application : VirtualDubMod 1.5.10.3 | www.virtualdub-fr.org || (build 2550/release)
Writing library : VirtualDubMod build 2550/release
Video
ID : 0
Format : MPEG-4 Visual
Format profile : Advanced Simple@L5
Format settings, BVOP : 2
Format settings, QPel : No
Format settings, GMC : No warppoints
Format settings, Matrix : Custom
Codec ID : XVID
Codec ID/Hint : XviD
Duration : 1h 55mn
Bit rate : 1 598 Kbps
Width : 720 pixels
Height : 384 pixels
Display aspect ratio : 1.85:1
Frame rate : 25.000 fps
Color space : YUV
Chroma subsampling : 4:2:0
Bit depth : 8 bits
Scan type : Progressive
Compression mode : Lossy
Bits/(Pixel*Frame) : 0.231
Stream size : 1.29 GiB (89%)
Writing library : XviD 73
Audio
ID : 1
Format : AC-3
Format/Info : Audio Coding 3
Mode extension : CM (complete main)
Format settings, Endianness : Big
Codec ID : 2000
Duration : 1h 55mn
Bit rate mode : Constant
Bit rate : 192 Kbps
Channel(s) : 2 channels
Channel positions : Front: L R
Sampling rate : 48.0 KHz
Frame rate : 31.250 fps (1536 spf)
Compression mode : Lossy
Stream size : 159 MiB (11%)
Alignment : Split accross interleaves
Interleave, duration : 40 ms (1.00 video frame)
Interleave, preload duratio : 500 ms
Релиз группы:
--
[Profile]  [PM] 
Display posts:    
Reply to topic

Current time is: 25-Sep 20:07

All times are UTC + 2



You cannot post new topics in this forum
You cannot reply to topics in this forum
You cannot edit your posts in this forum
You cannot delete your posts in this forum
You cannot vote in polls in this forum
You cannot attach files in this forum
You cannot download files in this forum