Флаг 11 сентября: Восставший из пепла 2016 / America\'s Flag: Rise from the ashes [2016, Документальный, HDTVRip 1080p]

Reply to topic
 
Author
Message

Atila ®

Gender: Unknown

Longevity: 8 years 5 months

Posts: 2531

Reputation: 0 [+] [-]

Atila · Post 20-Feb-2017 17:20

[Quote] 

Флаг 11 сентября: Восставший из пепла 2016 / America's Flag: Rise from the ashes
Год выпуска: 2016
Страна: США
Студия: History chanel
Жанр: Документальный
Продолжительность: 00:42:59
Перевод: Профессиональный (дублированный)
Описание: Пятнадцать лет назад, в момент величайшей трагедии американского народа, трое пожарных подняли флаг. Они и представить не могли, что они сделали. Это сплотило нацию, подавленную террором. Значение такого поступка невозможно переоценить. Но затем, флаг, необъяснимым образом исчез. Два года назад мы уже рассказывали об этой исторической потере, а теперь расскажем, как её обнаружили. Мы проведём многоуровневое расследование. Вы узнаете правду. Фактов много, но можем ли мы точно сказать, что это тот флаг?
Тип релиза: HDTVRip 1080p
Контейнер: MKV
Видео: 1920х1080 (16:9); 25.000 fps; 10000 Кбит/с
Аудио: Русский AC3, 2 ch, 192 Кбит/с
Релиз:
Сэмпл

MediaInfo

Format                      : MatroskaFormat version              : Version 2File size                   : 3.06 GiBDuration                    : 42 min 59 sOverall bit rate            : 10.2 Mb/sEncoded date                : UTC 2017-02-18 04:15:24Writing application         : mkvmerge v7.8.0 ('River Man') 32bit built on Apr  3 2015 12:11:22Writing library             : libebml v1.3.1 + libmatroska v1.4.2
VideoID : 1Format : AVCFormat/Info : Advanced Video CodecFormat profile : High@L4.1Format settings, CABAC : YesFormat settings, ReFrames : 8 framesCodec ID : V_MPEG4/ISO/AVCDuration : 42 min 59 sBit rate : 10 000 kb/sWidth : 1 920 pixelsHeight : 1 080 pixelsDisplay aspect ratio : 16:9Frame rate mode : ConstantFrame rate : 25.000 FPSColor space : YUVChroma subsampling : 4:2:0Bit depth : 8 bitsScan type : ProgressiveBits/(Pixel*Frame) : 0.193Stream size : 2.94 GiB (96%)Writing library : x264 core 146 r2538 121396cEncoding settings : cabac=1 / ref=8 / deblock=1:-1:-1 / analyse=0x3:0x113 / me=umh / subme=9 / psy=1 / psy_rd=1.00:0.20 / mixed_ref=1 / me_range=36 / chroma_me=1 / trellis=2 / 8x8dct=1 / cqm=0 / deadzone=21,11 / fast_pskip=0 / chroma_qp_offset=-3 / threads=12 / lookahead_threads=3 / sliced_threads=0 / nr=0 / decimate=0 / interlaced=0 / bluray_compat=0 / constrained_intra=0 / bframes=16 / b_pyramid=2 / b_adapt=2 / b_bias=0 / direct=3 / weightb=1 / open_gop=0 / weightp=2 / keyint=250 / keyint_min=25 / scenecut=40 / intra_refresh=0 / rc_lookahead=50 / rc=2pass / mbtree=1 / bitrate=10000 / ratetol=1.0 / qcomp=0.60 / qpmin=0 / qpmax=69 / qpstep=4 / cplxblur=20.0 / qblur=0.5 / vbv_maxrate=14000 / vbv_bufsize=14000 / nal_hrd=none / filler=0 / ip_ratio=1.40 / aq=1:1.00Default : YesForced : No
AudioID : 2Format : AC-3Format/Info : Audio Coding 3Mode extension : CM (complete main)Format settings, Endianness : BigCodec ID : A_AC3Duration : 42 min 59 sBit rate mode : ConstantBit rate : 192 kb/sChannel(s) : 2 channelsChannel positions : Front: L RSampling rate : 48.0 kHzFrame rate : 31.250 FPS (1536 spf)Bit depth : 16 bitsCompression mode : LossyStream size : 59.0 MiB (2%)Default : YesForced : No

Скриншоты


[Profile]  [PM] 
Display posts:    
Reply to topic

Current time is: 28-Nov 09:49

All times are UTC + 2



You cannot post new topics in this forum
You cannot reply to topics in this forum
You cannot edit your posts in this forum
You cannot delete your posts in this forum
You cannot vote in polls in this forum
You cannot attach files in this forum
You cannot download files in this forum