Джимми – покоритель Америки / Jimmy Vestvood: Amerikan Hero (Джонатан Кесселман / Jonathan Kesselman) [2016, США, комедия, BDRip] Dub

Reply to topic
 
Author
Message

Satyr ®

Gender: Unknown

Longevity: 12 years

Posts: 17692

Reputation: 56 [+] [-]

Satyr · Post 20-Feb-2017 17:20

[Quote] 

-Джимми – покоритель Америки / Jimmy Vestvood: Amerikan Hero
«Heroes are not born, they are imported»- -Страна: США
Жанр: комедия
Год выпуска: 2016
Продолжительность: 01:23:19-Перевод: Профессиональный (дублированный) iTunes
Cубтитры: нет
Оригинальная аудиодорожка: нет-Режиссер: Джонатан Кесселман / Jonathan Kesselman-В ролях: Маз Джобрани, Джон Хёрд, Дианна Руссо, Маршалл Манеш, Мэттью Глэйв, Шейла Ванд, Сэм Голзари, Мэтт Баллард, Навид Негабан, Вида Гахремани-Описание: Если свои герои заканчиваются — их завозят из заграницы! Джимми выиграл «гринкарту» в лотерею и на всех парах мчится в Штаты. Когда Борат уже забыт, а Бонд пьет свой чай с оливками, пора готовиться к новой встряске! Ой держись, Америка!- - -Качество видео: BDRip / Jimmy Vestvood Amerikan Hero 2016 BluRay 1080p DTS-HD MA 5 1 AVC REMUX-FraMeSToR
Формат видео: AVI-Видео: XviD build 67, 688x384 (16:9), 23.976 fps, ~2099 kbps avg, 0.331 bit/pixel
Аудио: 48 kHz, AC3 Dolby Digital, 3/2 (L,C,R,l,r) + LFE ch, ~384 kbps avg-

MediaInfo

Complete name : C:\Users\ИВАН\Desktop\Джимми – покоритель Америки (2016) BDRip_ivanes20031987.avi
Format : AVI
Format/Info : Audio Video Interleave
File size : 1.45 GiB
Duration : 1 h 23 min
Overall bit rate : 2 493 kb/s
Writing application : VirtualDubMod 1.5.10.3 | www.virtualdub-fr.org || (build 2550/release)
Writing library : VirtualDubMod build 2550/release
Video
ID : 0
Format : MPEG-4 Visual
Format profile : Advanced Simple@L5
Format settings, BVOP : 1
Format settings, QPel : No
Format settings, GMC : No warppoints
Format settings, Matrix : Custom
Codec ID : XVID
Codec ID/Hint : XviD
Duration : 1 h 23 min
Bit rate : 2 099 kb/s
Width : 688 pixels
Height : 384 pixels
Display aspect ratio : 16:9
Frame rate : 23.976 (24000/1001) FPS
Color space : YUV
Chroma subsampling : 4:2:0
Bit depth : 8 bits
Scan type : Progressive
Compression mode : Lossy
Bits/(Pixel*Frame) : 0.331
Stream size : 1.22 GiB (84%)
Writing library : XviD 67
Audio
ID : 1
Format : AC-3
Format/Info : Audio Coding 3
Mode extension : CM (complete main)
Format settings, Endianness : Big
Codec ID : 2000
Duration : 1 h 23 min
Bit rate mode : Constant
Bit rate : 384 kb/s
Channel(s) : 6 channels
Channel positions : Front: L C R, Side: L R, LFE
Sampling rate : 48.0 kHz
Frame rate : 31.250 FPS (1536 spf)
Bit depth : 16 bits
Compression mode : Lossy
Stream size : 229 MiB (15%)
Alignment : Split accross interleaves
Interleave, duration : 42 ms (1.00 video frame)
Interleave, preload duratio : 500 ms

Скриншот c названием фильма

Скриншоты

[Profile]  [PM] 
Display posts:    
Reply to topic

Current time is: 23-Jun 07:43

All times are UTC + 2



You cannot post new topics in this forum
You cannot reply to topics in this forum
You cannot edit your posts in this forum
You cannot delete your posts in this forum
You cannot vote in polls in this forum
You cannot attach files in this forum
You cannot download files in this forum