Вторая жизнь Уве / En man som heter Ove (Ханнес Холм / Hannes Holm) [2015, Швеция, комедия, драма, BDRip] Dub + Original Swe + Sub Eng

Reply to topic
 
Author
Message

Satyr ®

Online

Gender: Unknown

Longevity: 11 years

Posts: 15401

Reputation: 55 [+] [-]

Satyr · Post 20-Feb-2017 21:25

[Quote] 

-Вторая жизнь Уве / En man som heter Ove
«Misery Hates Company»- -Страна: Швеция
Жанр: комедия, драма
Год выпуска: 2015
Продолжительность: 01:55:53-Перевод: Профессиональный (дублированный) iTunes
Cубтитры: английские
Оригинальная аудиодорожка: шведская-Режиссер: Ханнес Холм / Hannes Holm-В ролях: Рольф Лассгорд, Бахар Парс, Зозан Акгюн, Тобиас Альмборг, Виктор Боуе, Филип Берг, Анна-Лена Бергелин, Лассе Карлссон, Карин де Фрумерье, Симон Эденрот-Описание: Кто же он такой, этот самый Уве? Пожилой въедливый ворчун, достающий соседей вечными придирками. Он впадает в ярость при виде брошенного не туда мусора или неправильно припаркованной машины. И кроет на чем свет стоит легкомысленную семейку новоселов, в которой папаша и гвоздя вбить не способен. Зато Уве умеет все: виртуозно втиснуть свой «сааб» между крыльцом и почтовым ящиком, починить батарею, выколотить скидку у самого прижимистого торговца. В доме и в гараже у него всегда идеальный порядок. Как и в мыслях. Вот только зачем ему пистолет или крюк в потолке, или пригоршня снотворных? Возможно, ответ знает приблудный котище. Его не склонный к сантиментам Уве гнал-гнал, да так и не прогнал…- - -Качество видео: BDRip / A Man Called Ove 2015 BluRay 1080p DTS-HD MA 5 1 AVC REMUX-FraMeSToR
Формат видео: AVI-Видео: XviD build 67, 720x304 (2.35:1), 24.000 fps, ~1908 kbps avg, 0.363 bit/pixel
Аудио 1: 48 kHz, AC3 Dolby Digital, 3/2 (L,C,R,l,r) + LFE ch, ~384 kbps avg
Аудио 2: 48 kHz, AC3 Dolby Digital, 3/2 (L,C,R,l,r) + LFE ch, ~384 kbps avg-

MediaInfo

Complete name : C:\Users\ИВАН\Desktop\Вторая жизнь Уве (2015) BDRip\Вторая жизнь Уве (2015) BDRip_ivanes20031987.avi
Format : AVI
Format/Info : Audio Video Interleave
Format profile : OpenDML
File size : 2.18 GiB
Duration : 1 h 55 min
Overall bit rate : 2 693 kb/s
Writing application : VirtualDubMod 1.5.10.3 | www.virtualdub-fr.org || (build 2550/release)
Writing library : VirtualDubMod build 2550/release
Video
ID : 0
Format : MPEG-4 Visual
Format profile : Advanced Simple@L5
Format settings, BVOP : 1
Format settings, QPel : No
Format settings, GMC : No warppoints
Format settings, Matrix : Custom
Codec ID : XVID
Codec ID/Hint : XviD
Duration : 1 h 55 min
Bit rate : 1 908 kb/s
Width : 720 pixels
Height : 304 pixels
Display aspect ratio : 2.35:1
Frame rate : 24.000 FPS
Color space : YUV
Chroma subsampling : 4:2:0
Bit depth : 8 bits
Scan type : Progressive
Compression mode : Lossy
Bits/(Pixel*Frame) : 0.363
Stream size : 1.54 GiB (71%)
Writing library : XviD 67
Audio #1
ID : 1
Format : AC-3
Format/Info : Audio Coding 3
Mode extension : CM (complete main)
Format settings, Endianness : Big
Codec ID : 2000
Duration : 1 h 55 min
Bit rate mode : Constant
Bit rate : 384 kb/s
Channel(s) : 6 channels
Channel positions : Front: L C R, Side: L R, LFE
Sampling rate : 48.0 kHz
Frame rate : 31.250 FPS (1536 spf)
Bit depth : 16 bits
Compression mode : Lossy
Stream size : 318 MiB (14%)
Alignment : Split accross interleaves
Interleave, duration : 42 ms (1.00 video frame)
Interleave, preload duratio : 500 ms
Audio #2
ID : 2
Format : AC-3
Format/Info : Audio Coding 3
Mode extension : CM (complete main)
Format settings, Endianness : Big
Codec ID : 2000
Duration : 1 h 55 min
Bit rate mode : Constant
Bit rate : 384 kb/s
Channel(s) : 6 channels
Channel positions : Front: L C R, Side: L R, LFE
Sampling rate : 48.0 kHz
Frame rate : 31.250 FPS (1536 spf)
Bit depth : 16 bits
Compression mode : Lossy
Stream size : 318 MiB (14%)
Alignment : Split accross interleaves
Interleave, duration : 42 ms (1.00 video frame)
Interleave, preload duratio : 500 ms

Скриншоты

[Profile]  [PM] 
Display posts:    
Reply to topic

Current time is: 01-Dec 04:21

All times are UTC + 2



You cannot post new topics in this forum
You cannot reply to topics in this forum
You cannot edit your posts in this forum
You cannot delete your posts in this forum
You cannot vote in polls in this forum
You cannot attach files in this forum
You cannot download files in this forum