Бобер / The Beaver (Джоди Фостер / Jodie Foster) [2011, США, ОАЭ, драма, BDRip] Dub + Sub Rus, Eng + Original Eng

Reply to topic
 
Author
Message

Satyr ®

Gender: Unknown

Longevity: 12 years

Posts: 18194

Reputation: 56 [+] [-]

Satyr · Post 20-Feb-2017 21:25

[Quote] 

Бобер / The Beaver

Страна: США, ОАЭ
Жанр: драма
Год выпуска: 2011
Продолжительность: 01:30:59
Перевод: Профессиональный (дублированный)
Cубтитры: русские (Воронин (полные, SDH), С BD издания, английские (полные, SDH))
Оригинальная аудиодорожка: английский

Режиссер: Джоди Фостер / Jodie Foster
В ролях: Мэл Гибсон, Джоди Фостер, Черри Джонс, Антон Ельчин, Райли Стюарт, Захари Бут, Дженнифер Лоуренс, Джефф Корбетт, Бэйлен Томас, Сэм Бреслин Райт
Описание: Уолтер Блэк — успешный бизнесмен, счастливый муж и отец. Одно несчастье — депрессия отравляет все его существование. Полноту и радость жизни Уолтеру возвращает… кукла бобер. Надев ее на руку, Уолтер обретает второе дыхание. Говорящий бобер восстанавливает мир в его отношениях с женой, делает Уолтера кумиром детей и даже берет на себя управление компанией...
Качество видео: BDRip
Формат видео: AVI
Видео: 720x304 (2.37:1), 23.976 fps, XviD build 73 ~1833 kbps avg, 0.35 bit/pixel
Аудио: 48 kHz, AC3 Dolby Digital, 3/2 (L,C,R,l,r) + LFE ch, ~448 kbps - дубляж
Аудио: 48 kHz, AC3 Dolby Digital, 3/2 (L,C,R,l,r) + LFE ch, ~448 kbps - оригинал (отдельно)
Формат субтитров: softsub (SRT)

MediaInfo

General
Complete name : H:\The.Beaver.2011.bdrip_[1.46]_[teko]\The.Beaver.2011.bdrip_[1.46].avi
Format : AVI
Format/Info : Audio Video Interleave
File size : 1.46 GiB
Duration : 1h 30mn
Overall bit rate : 2 291 Kbps
Writing application : VirtualDubMod 1.5.10.3 | www.virtualdub-fr.org || (build 2550/release)
Writing library : VirtualDubMod build 2550/release
Video
ID : 0
Format : MPEG-4 Visual
Format profile : Advanced Simple@L5
Format settings, BVOP : 2
Format settings, QPel : No
Format settings, GMC : No warppoints
Format settings, Matrix : Custom
Codec ID : XVID
Codec ID/Hint : XviD
Duration : 1h 30mn
Bit rate : 1 834 Kbps
Width : 720 pixels
Height : 304 pixels
Display aspect ratio : 2.35:1
Frame rate : 23.976 (23976/1000) fps
Color space : YUV
Chroma subsampling : 4:2:0
Bit depth : 8 bits
Scan type : Progressive
Compression mode : Lossy
Bits/(Pixel*Frame) : 0.349
Stream size : 1.17 GiB (80%)
Writing library : XviD 73
Audio
ID : 1
Format : AC-3
Format/Info : Audio Coding 3
Mode extension : CM (complete main)
Format settings, Endianness : Big
Codec ID : 2000
Duration : 1h 30mn
Bit rate mode : Constant
Bit rate : 448 Kbps
Channel(s) : 6 channels
Channel positions : Front: L C R, Side: L R, LFE
Sampling rate : 48.0 KHz
Frame rate : 31.250 fps (1536 spf)
Compression mode : Lossy
Stream size : 292 MiB (20%)
Alignment : Split accross interleaves
Interleave, duration : 42 ms (1.00 video frame)
Interleave, preload duratio : 500 ms
Релиз группы:
--
[Profile]  [PM] 
Display posts:    
Reply to topic

Current time is: 25-Sep 20:50

All times are UTC + 2



You cannot post new topics in this forum
You cannot reply to topics in this forum
You cannot edit your posts in this forum
You cannot delete your posts in this forum
You cannot vote in polls in this forum
You cannot attach files in this forum
You cannot download files in this forum